<?xml version="1.0" standalone="no"?>
<!DOCTYPE svg PUBLIC "-//W3C//DTD SVG 1.1//EN" "http://www.w3.org/Graphics/SVG/1.1/DTD/svg11.dtd" >
<svg xmlns="http://www.w3.org/2000/svg" xmlns:xlink="http://www.w3.org/1999/xlink" version="1.1">
<metadata></metadata>
<defs>
<font id="riskaregular" horiz-adv-x="0" >
<font-face units-per-em="1024" ascent="713" descent="-311" />
<missing-glyph horiz-adv-x="276" />
<glyph />
<glyph />
<glyph unicode="&#xd;" />
<glyph unicode=" "  horiz-adv-x="276" />
<glyph unicode="&#x09;" horiz-adv-x="276" />
<glyph unicode="&#xa0;" horiz-adv-x="276" />
<glyph unicode="A" horiz-adv-x="772" d="M694 125q-1 12 6 22q7 9 12 8q25 -7 18 -37q-7 -31 -23 -34q-8 -1 -14 0q-7 2 -12 7q-21 17 -20 59t25 59q14 2 25 -2q11 -5 19 -14q13 -14 19 -38q6 -23 6 -49q0 -38 -14 -71q-14 -32 -39 -35q-2 -1 -4 -1q-9 1 -24 5q-18 5 -23 11q-16 16 -32 53t-22 72q-7 46 -3 97 q5 51 6 97q-69 2 -139 2q-69 0 -132 11q-27 -45 -60 -113t-62 -125q-17 -31 -36 -61q-19 -31 -51 -43q-17 -7 -35 1q-18 7 -34 14q-16 21 -21 66q-1 10 -1 18q0 33 17 54q19 23 47 16q27 -6 28 -26q1 -6 -3 -13q-4 -8 -13 -15q-1 4 -6 4q-6 -1 -7 3q-7 12 6 11t9 12 q-3 14 -16 13q-13 -2 -20 -5q-17 -8 -24 -33t-4 -49q3 -17 10 -31t18 -20q20 0 35 8q14 7 26 19q22 23 36 56q14 32 28 60q44 84 82 180q38 97 77 185q20 46 46 84t58 72q12 12 27 22q15 9 29 21h6q5 0 8 -1q5 -3 12 1q42 -20 57 -74q14 -54 19 -116q2 -33 3 -66 q2 -33 5 -60q1 -6 1 -10q0 -5 7 -8q-6 -9 -5 -25q0 -17 10 -21q-10 -16 -7 -40t4 -57q1 -20 1 -42q1 -22 1 -44q1 -42 6 -80q4 -37 18 -56q9 -12 18 -16t18 -2q17 4 30 23q13 20 16 41q4 33 -5 74t-31 43q-7 1 -13 -1q-5 -3 -9 -7q-15 -18 -9 -54q6 -35 21 -38q4 0 10 4 q5 4 10 15q-1 4 -11 1q-10 -2 -12 9zM531 706q-29 11 -45 -17q-17 -27 -27 -46q-30 -59 -55 -115q-26 -56 -47 -118q55 -2 118 -15q64 -12 127 0q0 59 -5 127t-20 116q-5 14 -20 39q-14 25 -26 29zM352 357q2 12 7 20q6 8 6 21q-6 -2 -8 0q-3 2 -7 2q-4 -11 -9 -20 q-6 -9 -9 -21q6 1 9 -1q4 -3 11 -1zM390 352q-1 9 4 19t7 22q-21 8 -26 -8q-4 -16 -8 -31q9 -2 12 -1q4 1 11 -1zM426 352q2 9 6 17q4 7 2 21q-18 6 -23 -6q-6 -13 -5 -30q4 -1 9 -2t11 0zM459 349q3 9 5 17q3 8 3 19q-20 4 -22 -10t-6 -26h10h10zM498 349l2 16q2 7 3 15 q-15 6 -22 -3q-8 -10 -6 -25q3 -3 10 -3q7 1 13 0zM536 347q-2 9 1 15q2 6 1 15q-6 4 -12 2q-5 -2 -11 1q-1 -11 -3 -17t1 -16h11h12zM582 349v16v15q-16 2 -26 -5t-5 -28q9 3 15 1q5 -3 16 1zM597 349q-5 6 -2 15t2 16q7 -1 6 -15q-1 -15 -6 -16zM717 127v10t-5 6 q-2 -4 -3 -8q-2 -3 -2 -8h5h5z" />
<glyph unicode="B" horiz-adv-x="556" d="M224 453q58 -10 105 -45q47 -36 82 -90q28 -43 51 -88q23 -46 35 -87q8 -27 8 -53q0 -13 -2 -25q-6 -39 -38 -55q-18 -7 -50 -8h-13q-25 0 -47 3q-7 2 -15 7q-7 4 -17 8q-8 2 -16 2q-8 1 -14 3q-14 6 -27 18q-13 13 -17 19q-12 21 -10 50q1 30 17 46q31 22 64 5 q33 -18 39 -47q3 -19 -6 -36q-10 -16 -23 -21q-38 -3 -44 30q-7 33 19 39q19 -1 23 -21q3 -20 -26 -20q2 9 10 13t-2 14q-21 -10 -14 -26q8 -17 29 -16q32 9 20 44t-45 42q-9 0 -18 -4t-21 -11q-7 -34 4 -56q12 -23 28 -40q32 -9 55 -16q24 -7 51 4q45 21 54 72t-10 110 q-21 67 -69 130q-47 62 -103 85q-14 4 -26 4q-11 -1 -21 3q1 -58 -3 -114q-4 -57 5 -111q-7 -29 -6 -68t-11 -74q-4 -12 -13 -24q-8 -12 -19 -17q-11 -6 -35 -12q-24 -5 -38 -4q-41 10 -56 61q-6 19 -6 36q0 29 17 53q9 1 15 1q5 -1 10 2q19 -12 16 -35q-2 -22 -26 -26 q-7 2 -7 12q-1 9 -1 19q7 6 13 4t12 -6q-2 7 -6 13q-4 5 -14 4q-26 -28 -13 -74q14 -45 46 -51q23 0 36 28q14 27 18 51q6 33 10 72q3 39 5 78q5 122 13 244t9 228q4 2 4 8q48 -8 91 -19t74 -36q19 -14 42 -50q23 -35 13 -73q-23 -45 -82 -64q-60 -19 -113 -42v0zM226 468 q33 12 67 23q33 11 62 27q14 54 -2 101t-43 78q-19 11 -41 14q-23 3 -48 6q5 -64 1 -123q-3 -60 4 -126v0zM209 653q6 12 5 25t-5 26q2 -14 -1 -27q-2 -14 1 -24v0zM207 606q-1 6 1 4t6 -1q0 12 -1 17t1 12h-7q-1 -8 -3 -17t3 -15v0zM202 552q5 -1 6 3q1 3 6 2q-1 9 0 17 t0 20q-4 0 -5 -2q-1 -1 -5 2q-3 -10 -4 -19t2 -23v0zM197 537v-19q0 -9 -2 -15q3 0 8 2h11v34q-6 2 -9 -1q-3 -2 -8 -1v0zM195 461q6 -1 11 0q2 1 8 2v25q-7 1 -10 1t-9 1l-3 -15q-1 -8 3 -14v0zM190 441v-27q7 -2 11 -2q5 1 13 2v27q-3 0 -13 1q-3 0 -11 -1v0zM187 367 q7 1 11 -1q5 -2 11 -1q6 4 5 14v20q-9 1 -14 1q-4 -1 -10 1q-1 -4 -2 -14q-1 -8 -1 -20v0zM185 315q7 1 12 -1q5 -1 12 -1q4 7 3 19q-1 11 0 21q-9 -1 -15 0q-4 0 -12 2v-40v0zM182 301q0 -34 -2 -67q-2 -19 -5 -59q9 -3 17 -5q9 -2 17 3v32q-11 -1 -20 1t-7 13q5 3 13 -1 t14 -1q1 7 2 21q0 4 1 16q-10 1 -17 -1t-10 4q-2 10 7 10h17q3 11 2 17q-2 6 1 17q-6 1 -17 1q-7 1 -13 -1v0zM173 136q10 -4 19 -4q10 -1 17 6v20q-17 2 -29 1t-7 -23v0zM165 99q11 -2 21 -4q10 -1 18 4l2 10q2 5 1 12q-10 -3 -19 -1q-9 1 -18 4q-1 -15 -5 -25v0zM160 69 q10 1 15 1q6 -1 17 -1q2 5 7 15h-36q0 -5 -2 -8q-2 -2 -1 -7v0zM150 45q7 -3 16 -2q10 2 14 11q-5 3 -13 3q-7 -1 -12 2q-1 -3 -3 -6t-2 -8v0z" />
<glyph unicode="C" horiz-adv-x="601" d="M430 624q24 -22 11 -53t-49 -18q-9 15 -4 34q6 19 24 12q0 -11 -9 -14q-8 -3 -6 -16q27 -19 34 12q8 31 -29 33q-9 -1 -17 -8q-9 -8 -11 -12q-14 -47 29 -71q43 -23 85 10q4 29 1 64q-4 34 -16 58q-8 7 -25 20q-12 11 -23 23q-29 7 -68 14q-39 6 -71 1q-10 -3 -16 -7 q-7 -4 -15 -3q-64 -53 -105 -145t-44 -202q-2 -38 4 -77q6 -38 24 -67q-2 -3 -5 -8q-1 -4 2 -8q11 -25 20 -52q8 -27 26 -47q3 -2 2 -6q-1 -3 -2 -9q31 -23 65 -43q34 -19 77 -25q76 -6 136 34q60 39 76 105q6 33 -5 61q-11 29 -33 43q-32 9 -60 1q-27 -8 -44 -26 q-15 -32 -5 -62q9 -31 38 -40q25 -4 46 12q21 15 20 42q-1 12 -10 21q-8 10 -18 12q-31 -3 -27 -31q3 -27 25 -10q-2 5 -7 -1q-4 -5 -9 1q9 31 24 11q14 -20 -13 -31q-11 -2 -18 3q-6 4 -15 14q-1 20 4 33t16 21h33q38 -33 17 -73q-22 -39 -68 -36q-39 10 -49 49 q-10 40 11 80q30 21 70 26t67 -18q7 -8 17 -28q11 -20 16 -31q9 -25 9 -50q0 -23 -7 -46q-15 -49 -53 -73q-28 -6 -46 -13q-19 -8 -37 -13h-9q-6 0 -11 1q-9 1 -21 2q-21 1 -36 -1q-15 -1 -35 1q-32 4 -63 18t-55 32q-66 52 -103 135q-32 72 -32 160v28q8 122 63 222 q55 101 160 131q21 6 49 6q22 0 48 -4q58 -7 98 -27q7 -4 20 -14q12 -9 18 -16q25 -41 14 -92q-10 -51 -42 -70q-13 -6 -29 -8q-15 -1 -34 -5q-31 7 -50 37q-18 29 -6 62q6 14 24 23q18 8 42 2v0zM190 667q5 -1 12 0q7 0 10 8q-5 0 -15 1q-6 1 -7 -9v0zM164 642q8 2 12 -1 q4 -2 6 -7q1 6 5 9t5 9q-11 3 -19 3q-8 1 -9 -13v0zM139 614q16 -3 26 0q10 4 15 15q-11 0 -18 -1q-6 -1 -10 6q-3 -5 -7 -9t-6 -11v0zM124 591l14 -4q8 -2 19 -1q-2 5 0 7t2 6l-16 2q-7 2 -12 6q0 -6 -3 -8q-3 -3 -4 -8v0zM114 566q7 -1 13 -4q7 -2 17 -1q0 4 2 8q3 5 -2 7 q-3 -1 -13 0t-12 5l-4 -6t-1 -9v0zM96 528q7 -1 15 -4q8 -2 18 -1q0 8 3 13t4 12q-6 3 -14 2q-8 0 -16 3q-4 -8 -10 -25v0zM86 495q8 -4 16 -3q9 1 14 -4q3 4 4 11q1 6 4 12q-13 3 -27 2t-11 -18v0zM78 465q6 -2 13 -4q6 -2 15 -1q3 3 7 10q3 7 -2 13q-5 -4 -15 -3t-16 3 q1 -7 0 -10l-2 -8v0zM73 430q7 -2 13 -6t15 -5q5 7 5 16q0 8 2 15q-17 -2 -33 0q0 -3 -2 -10q-1 -4 0 -10v0zM70 389q4 1 12 -3t16 -4q3 8 2 13q0 5 1 14q-8 -2 -16 0q-6 1 -17 3v-13q-1 -7 2 -10v0zM65 354q8 -4 15 -5h18v20q-7 3 -16 3q-9 1 -17 5v-23v0zM65 336v-23 l16 -2q7 -1 17 0v15q1 8 -2 13q-10 0 -16 -2t-15 -1v0zM68 285q10 4 17 0q7 -3 16 0q2 14 -10 13h-23v-13v0zM106 179q2 6 6 6q4 1 12 -1q-2 6 -5 20q-11 0 -19 1q-8 2 -7 12q5 4 10 2t11 -2q0 7 -2 12q-1 5 -6 8q-4 -3 -14 -1q-11 1 -12 8q0 7 6 8q7 0 10 -2q3 -3 10 -3 q0 8 -2 13t-1 13q-10 0 -18 -2q-7 -2 -15 2q9 -56 36 -94v0zM111 168q0 -5 3 -8q4 -3 5 -9q4 1 7 2q4 1 10 0q-1 6 -3 11q-2 4 -7 7q-1 -3 -6 -3q-5 1 -9 0v0zM149 118q-4 5 -5 13q-2 9 -8 12q-9 -8 -1 -17t14 -8v0z" />
<glyph unicode="D" horiz-adv-x="731" d="M430 125q-5 -9 -11 -19q-6 -9 -17 -7q3 15 9 24q7 9 -9 17q-23 -13 -19 -42t34 -31q44 10 35 72q-8 61 -47 74q-35 3 -54 -33q-19 -35 -12 -81q5 -26 23 -45q18 -18 38 -35q78 -4 124 29q47 34 72 89q28 62 42 137q14 76 11 151q-5 86 -37 155q-32 70 -82 115 q-25 8 -45 17q-19 9 -48 10q-23 -180 -54 -353t-107 -300q-18 -11 -32 -20q-15 -9 -34 -17q-70 -11 -125 13q-54 24 -56 92q1 28 14 51q13 22 36 33q42 16 83 -4q40 -21 35 -72q-2 -12 -9 -18q-6 -7 -13 -18q-19 -2 -36 -3q-18 0 -27 14q-7 16 0 31q8 14 20 17q17 0 26 -17 t-6 -31q17 0 23 10q4 6 12 20q-20 84 -90 60t-50 -108q25 -53 91 -61t112 31q69 136 103 299q33 164 49 349q-56 3 -111 -35q-56 -39 -25 -101q26 -33 68 -15q41 17 33 73q-5 -10 -13 -30q-7 -16 -25 -23q-34 9 -23 43q12 35 43 38q14 -3 23 -16q8 -13 10 -20q3 -35 -19 -59 q-23 -24 -49 -27q-41 1 -60 37q-20 35 -1 82q16 29 65 49q49 19 92 22h9q55 0 104 -22q55 -23 80 -69q30 -56 50 -139q18 -80 19 -158v-6q-2 -90 -23 -168t-68 -129q-26 -10 -48 -22q-21 -12 -44 -16q-22 -4 -46 -6h-9q-20 0 -39 6q-20 7 -39 32t-27 51q-10 45 13 93t73 39 q10 -5 24 -21q13 -15 18 -28q13 -36 3 -74q-9 -39 -33 -47q-17 -3 -33 7q-17 10 -22 26q-6 40 17 59q24 18 41 -21v0zM321 607q22 0 24 16q2 17 7 32q-18 -3 -29 -17q-12 -14 -2 -31v0zM135 120q-4 10 1 12q5 1 11 0q2 29 -17 15t5 -27v0z" />
<glyph unicode="E" horiz-adv-x="440" d="M370 703q-6 2 -13 9q-8 7 -2 21q11 3 26 1q14 -2 19 -11q-10 -23 -33 -49q-22 -26 -46 -35q-51 -14 -92 11q-42 26 -75 45q9 -25 16 -55q6 -29 9 -66q1 -29 -4 -59q-6 -29 -1 -53q5 -12 21 -23q16 -10 29 -14q29 -7 62 0q32 6 59 -7q15 -26 0 -52q-11 -7 -25 -7 q-14 -1 -25 7q-2 4 -2 12v15q6 3 13 6q7 2 17 1q6 -3 8 -10q3 -7 0 -12q18 21 -4 28t-46 4q-33 -5 -68 -20q-36 -16 -51 -34q-11 -88 -28 -170q-17 -81 -52 -148q28 15 67 43q40 28 87 42q34 6 61 -9q27 -14 43 -36l12 -15q7 -9 8 -15q0 -20 -18 -28q-19 -7 -44 -7 q-14 12 -11 32q3 21 24 23q-38 7 -75 -5t-74 -25q-57 -18 -109 -37q-1 6 -1 11q1 21 7 41q8 25 16 49q19 71 37 160t23 181q0 49 -4 101q-4 51 -1 102q1 21 -1 44q-1 23 -4 43q5 3 9 3q5 0 9 -4q6 -7 16 -17q42 -28 101 -29t110 17v0zM229 675q-4 1 -9 3q-4 2 -6 -3l8 -4 q5 -2 7 4v0zM303 675q4 -10 3 -24q6 -1 10 1q3 1 10 4q-2 7 0 11q3 5 2 11q-4 0 -11 -1q-4 -1 -14 -2v0zM256 656v17q-6 -1 -8 1q-3 1 -7 1q0 -8 4 -13q5 -4 11 -6v0zM268 653q7 -1 13 -3t12 1q1 6 -1 11q-2 4 -2 11q-13 3 -17 -4q-4 -6 -5 -16v0zM308 373q16 -2 10 10h-10 v-10v0zM222 105q-5 -6 -6 -18q-2 -11 3 -19q4 4 10 5l12 2q-1 10 2 20t1 15q-9 -5 -22 -5v0zM253 80q9 -1 15 2q5 3 13 3q-3 6 0 12q2 6 0 10q-7 0 -11 2q-3 1 -9 1q-4 -5 -5 -14q0 -9 -3 -16v0zM293 87q3 -2 10 -2q8 -1 10 2q-7 8 -18 13q2 -5 0 -7q-2 -1 -2 -6v0zM186 90 q1 -11 0 -18t0 -16q5 -1 8 2q2 3 7 2q0 11 2 19t-2 18q-2 -3 -6 -4q-5 -1 -9 -3v0zM154 73q2 -9 2 -13q0 -3 -2 -12q4 -3 9 0q4 3 8 5q-1 9 1 19q3 9 -3 11q-6 -6 -15 -10v0zM130 41q4 -2 6 0q2 3 6 2v12q-1 6 -5 8q-5 -4 -9 -9q-3 -5 2 -13v0zM321 29q12 -2 19 11 q7 14 -7 16q5 -9 -2 -16q-3 -4 -10 -11v0zM298 36q4 -3 10 -7q5 -3 10 2q-8 1 -7 8t5 12q-10 0 -14 -3q-5 -3 -4 -12v0zM97 31q6 -1 9 1t9 1q-1 8 2 13q-13 -5 -20 -15v0z" />
<glyph unicode="F" horiz-adv-x="661" d="M618 733q-8 -24 -32 -46t-51 -28q-43 -8 -88 10t-79 33q-14 -67 -15 -132t-3 -143q6 -3 21 1q16 4 23 -6q-7 -14 -21 -10q-15 4 -26 -3v-10q8 -7 26 0q18 6 28 -3q-4 -14 -20 -12q-16 1 -34 -1q-14 -74 -28 -156q-14 -81 -49 -142q-31 -36 -68 -64q-26 -20 -62 -20 q-16 0 -35 5q-8 2 -21 11q-13 8 -20 14q-29 37 -29 86q1 17 4 36q15 72 72 84q75 -6 78 -83t-84 -79q-25 22 -20 61q4 39 46 39q16 -13 11 -34q-6 -21 -26 -18q0 8 -5 11q1 8 11 8q10 -1 9 10q-23 19 -34 -13q-10 -32 11 -51q77 6 70 71t-73 62q-51 -16 -58 -77 q-7 -62 25 -108q23 -18 62 -20t67 18q7 7 14 18l14 20q22 29 33 62q12 33 24 74q6 20 13 39q8 18 12 39q10 47 13 90q-8 4 -24 2q-16 -3 -22 5q4 11 20 9t29 -1q-1 6 0 9q2 3 2 7q-6 4 -20 0q-13 -4 -16 7q2 8 12 7q11 0 22 1q9 67 10 146q2 80 0 150q-88 20 -133 -16 t-34 -118q5 -40 21 -71q17 -32 53 -40q41 -4 57 28q15 32 13 73q-9 -30 -52 -26q-6 7 -20 21q-10 10 -13 25q-2 27 22 49q24 21 47 18q38 -17 30 -92t-35 -101q-17 -1 -28 -10q-6 3 -15 5q-8 1 -16 -2q-42 16 -61 63t-13 99q2 34 9 59q7 26 34 41q25 12 63 14h17q29 0 54 -4 q14 -3 29 -8t30 -7q65 -12 123 -12q59 0 99 27v0zM250 628q-12 -19 -6 -42q7 -24 29 -28q9 -1 20 6q10 6 3 20q-9 -7 -19 -4q-11 2 -12 14q4 21 26 16q23 -5 23 -34q11 50 -14 65t-50 -13v0z" />
<glyph unicode="G" horiz-adv-x="714" d="M475 622q16 -41 -16 -50t-35 37q14 -3 14 -18q-1 -14 19 -10q23 11 5 31q-18 21 -40 21q-31 -10 -27 -48q3 -38 34 -47q96 -5 111 66q15 70 -55 110q-34 13 -75 11q-41 -3 -80 -3q-22 -13 -45 -21q-23 -7 -45 -20q-53 -37 -85 -105q-31 -68 -37 -145q-5 -93 22 -183 t72 -159q27 -37 84 -57q57 -21 113 -17q21 3 37 12t36 16q30 46 28 104q-1 38 -5 116q-43 -8 -88 2q-46 10 -82 18q-10 1 -29 2t-20 13q4 12 25 9q21 -4 34 -6q44 -5 78 -4q35 2 72 12q28 6 55 9q28 4 50 11q10 6 19 13q10 7 22 0q4 -10 5 -23q0 -13 3 -31q-21 -4 -45 -10 t-50 -10q7 -69 3 -134t-49 -98q-30 -8 -52 -19t-47 -14q-10 -1 -19 -1q-52 0 -99 21q-56 24 -92 59q-17 18 -37 45t-36 55q-29 46 -45 101q-16 54 -16 118v6q0 64 15 126q16 64 54 107q17 19 47 35q30 15 62 29q36 16 74 23q39 8 77 8h45t48 -8q28 -12 52 -45q23 -34 17 -75 q-8 -36 -45 -61q-36 -26 -79 -21q-47 14 -48 60q-2 46 33 60q17 4 29 -4t29 -19v0zM210 676q8 -1 12 3v4t-2 3q0 -5 -5 -5q-6 1 -5 -5v0zM182 663q3 -2 6 -5q4 -2 9 -2q7 3 10 10q-8 -1 -15 1q-6 2 -10 -4v0zM159 645q8 -1 14 -2q6 -2 14 -3q-2 10 -13 12t-15 -7v0zM139 625 q6 -4 19 -6q14 -2 16 8q-7 6 -20 8q-14 1 -15 -10v0zM121 602q6 -5 16 -7q9 -2 19 -3q0 5 3 8q3 4 5 7q-9 2 -19 3t-17 5q-2 -4 -4 -6q-2 -3 -3 -7v0zM108 576q8 -3 17 -6q8 -3 19 -4q-2 7 1 9q4 1 4 6q-11 0 -19 4q-8 3 -17 4q-2 -3 -2 -6q-1 -4 -3 -7v0zM90 530 q6 -6 17 -8t19 -7q-1 9 2 13q-13 0 -25 5t-3 15q10 -2 16 -5q5 -3 15 -3q1 4 3 7q2 2 2 6q-10 3 -17 6q-8 4 -19 4q-2 -9 -5 -16q-4 -7 -5 -17v0zM85 515q-3 -8 -4 -19q-2 -10 -4 -19q11 -2 18 -6q8 -5 18 -6q2 2 3 6q0 4 2 6q-8 3 -17 5q-10 3 -16 8q-1 5 0 8q1 4 5 5 q9 -2 14 -7t17 -3q0 5 3 11q2 7 -1 9q-7 -8 -19 -4q-11 3 -19 6v0zM75 449q10 -2 23 -9t15 12q-10 2 -20 5q-9 3 -16 8q1 -6 -1 -8t-1 -8v0zM75 429q7 -5 16 -9q8 -3 17 -7q3 6 3 16q-12 -5 -22 0q-11 5 -14 0v0zM72 393q13 2 19 -3t17 -5v18q-8 2 -17 3q-10 1 -16 5 q-4 -4 -1 -9q2 -5 -2 -9v0zM75 370q16 -6 33 -10q1 4 1 8q0 3 -4 7q-5 -2 -15 1t-15 7v-13v0zM80 334q10 -1 16 -3t15 1v15q-13 7 -34 5q-1 -6 1 -10q1 -3 2 -8v0zM85 303q11 1 16 -2t15 0q-1 5 -2 8q-2 4 -1 10h-31q-1 -6 1 -8q3 -2 2 -8v0zM595 298q-1 -7 6 -7t9 5 q-3 0 -3 3q0 4 -2 4q-3 -4 -10 -5v0zM564 293v-10q9 0 14 2t4 11q-6 1 -9 -1t-9 -2v0zM90 288q-1 -6 1 -9t2 -9q8 3 17 0q8 -2 16 -2q-3 5 -4 13q-1 7 -6 10q-4 -4 -12 -3t-14 0v0zM536 283q3 -5 11 -5q8 1 7 10q-12 1 -18 -5v0zM518 275q1 4 5 3q-1 10 -7 6t2 -9v0z M482 280q1 -9 12 -7t11 10q-5 0 -10 -2q-5 -1 -13 -1v0zM452 273q7 1 9 1t9 -1q-2 7 -9 7t-9 -7v0zM100 255q0 -3 1 -5q2 -2 2 -5q4 -2 14 -1q9 0 14 -6q-2 -6 -7 -7q-6 -1 -11 -4q1 -10 11 -14t15 7q-5 10 -7 21q-3 12 -9 19q-4 -5 -9 -4t-14 -1v0zM131 199q3 -14 13 -23 q0 2 2 2q3 1 5 1q-3 12 -7 23q-5 1 -7 -1t-6 -2v0zM172 138q-8 17 -18 31q0 -12 5 -19q6 -6 13 -12v0z" />
<glyph unicode="H" horiz-adv-x="602" d="M402 740q-6 -63 -16 -131t-22 -130q10 0 21 9t25 13q12 44 19 94q7 51 24 92q7 18 27 33q19 14 39 -3q21 -29 22 -62q0 -37 -25 -78q-48 -81 -99 -109q-12 -86 -38 -199q-27 -114 -13 -213q3 -12 11 -21q7 -9 13 -21q34 16 52 50q18 33 44 59q-11 -38 -50 -89t-95 -23 q-4 13 -8 25t-5 26q0 93 22 193q22 99 45 190q-37 -10 -46 -48q-9 -39 -18 -94q-13 -72 -34 -155q-20 -83 -60 -124q-26 -22 -66 -24h-3q-38 0 -68 24q-17 23 -26 54q-6 22 -6 45q0 10 1 20q17 101 98 161t159 106q13 66 23 130q11 64 22 129q-15 -21 -44 -59 q-28 -39 -65 -40q-21 3 -32 25q-10 22 -13 51q-20 -50 -27 -115q-6 -65 -35 -104q-54 -42 -64 36q-11 78 49 68q13 -14 2 -35q-12 -22 -22 0q1 8 6 2q4 -5 9 1q4 21 -10 25q-28 -13 -27 -53q0 -40 30 -46q21 3 35 40q13 36 18 61q5 26 12 57q6 31 14 63q3 15 6 31q2 16 4 27 q-1 11 -3 21t13 12q7 -14 4 -32t-4 -36q-2 -21 5 -49q6 -28 27 -35q18 -2 41 13q22 14 33 30q20 28 34 58t28 54h7v0zM415 486q43 32 67 101t4 125q-32 -43 -44 -105t-27 -121v0zM392 461q12 12 8 15q-3 3 -8 -15v0zM377 445q7 18 2 17t-2 -17v0zM353 432q8 1 10 12 q2 10 -4 11q-1 -6 -2 -11q-2 -5 -4 -12v0zM316 392q-69 -41 -148 -102t-89 -170q0 -55 31 -84q32 -29 81 -25q32 7 51 53q19 45 30 84q23 65 35 128q12 62 16 121q-4 -2 -7 -5v0zM374 296q0 7 4 14t-1 13q0 -8 -3 -15q-4 -7 0 -12v0zM308 359q-4 -60 -19 -119 q-15 -58 -40 -117q-9 -25 -26 -51q-16 -25 -32 -33q-12 -5 -25 -4t-21 6q-32 28 -22 87q9 59 30 94q22 35 61 72q38 36 74 60q2 2 7 4t13 1v0zM133 90q12 -52 45 -39t51 47q10 19 20 47l18 57q13 38 20 75q6 36 9 66q-1 4 -6 3q-55 -39 -110 -108t-47 -148v0zM267 296 q9 -13 5 -29q-5 -17 -10 -33q-8 -29 -17 -58q-9 -28 -23 -58q-5 -12 -16 -25t-25 -13q-12 2 -18 13q-7 11 -8 22q4 51 43 101q38 51 67 80h2v0zM168 128q-1 -47 24 -30q25 18 30 45q-10 -4 -14 -13t-19 -7q-2 32 14 56t34 43q3 0 5 -1q2 -2 5 -2q-1 14 5 25q5 11 0 24 q-19 -21 -48 -60t-36 -80v0zM199 140q8 10 15 24q7 15 8 25q-5 -8 -13 -23q-7 -11 -10 -26v0zM222 145q2 5 5 15t0 9q-1 -7 -5 -13t0 -11v0z" />
<glyph unicode="I" horiz-adv-x="449" d="M364 677q2 -8 8 -3t10 1q-2 -9 -8 -12t-15 -4q-10 9 -7 22t9 22q13 1 20 -2l16 -6q3 -13 3 -25q0 -13 -4 -26q-9 -24 -30 -28q-34 -1 -52 26q-18 26 -40 41q-15 -29 -17 -67q-2 -26 -7 -77q-13 -117 -28 -238q-15 -120 -25 -237q25 -16 62 -38t51 25q-5 5 -7 -4 q-2 -8 -11 -6q-4 12 3 21t22 7q13 -20 2 -41q-10 -21 -30 -26h-3q-6 0 -12 3q-6 2 -13 2q-4 0 -7 -2q-3 -3 -6 -3q-21 3 -50 7t-57 4q-34 -3 -70 1q-37 4 -46 32q-2 9 -2 16q1 20 12 36q15 21 36 5q1 -14 -2 -23t-8 -16q-9 -1 -14 2q-4 3 -9 6q-4 -44 36 -44t59 20 q30 140 48 301q19 161 31 331q-36 -19 -91 -36q-54 -18 -91 18q-3 26 7 47q9 22 32 20q24 -10 15 -33t-28 -1q1 11 7 7q7 -5 11 -1q-19 23 -28 -6t15 -43q12 -4 31 -2q18 3 33 7q37 13 73 38q36 26 63 39q8 2 15 2q17 0 28 -16q15 -24 24 -45q5 -14 12 -32q8 -17 29 -15 q23 12 18 43q-5 30 -23 6v0zM222 659q12 0 18 -1q5 0 13 -1q-1 5 1 7t2 6q-5 6 -17 5q-12 -2 -17 0v-16v0zM250 639q-2 7 -11 9q-6 0 -19 1q3 -7 13 -7t17 -3v0zM217 613q7 6 13 1q7 -4 15 -4q3 3 4 11t-4 10q-4 -1 -12 -2t-16 2q2 -6 -1 -11q-2 -5 1 -7v0zM212 580 q16 -5 31 -11q-1 9 0 17q2 8 0 12q-6 2 -14 2q-9 0 -14 3q0 -7 -2 -11q-2 -5 -1 -12v0zM209 544q7 0 13 -4q5 -3 16 -4q0 6 2 11t0 12q-8 1 -13 3q-6 2 -15 2q1 -6 0 -11l-3 -9v0zM207 508q10 1 16 -1q6 -3 12 -4q0 7 1 11q2 4 2 9q-4 1 -13 3q-7 2 -16 2q1 -6 -1 -10 q-2 -3 -1 -10v0zM199 423q10 1 14 -3q4 -5 12 -4l2 8q2 3 0 10q-9 -1 -15 2t-5 13q2 0 3 1l2 2q5 0 7 -4q2 -3 8 -1q5 5 3 15q-8 0 -15 1q-7 2 -8 9q3 8 9 6q6 -3 14 -3q0 5 2 7q2 3 0 8q-5 3 -13 3t-15 2q0 -38 -5 -72v0zM220 380q-2 0 -3 -1l-2 -2q-4 3 -10 5t-8 -5 q3 -1 10 -3q6 -1 15 -2q0 12 1 17q2 4 2 14q-13 2 -26 5q0 -13 10 -14q11 -2 11 -14v0zM192 349q6 -2 14 -2q8 -1 14 -3v15l-12 2q-6 2 -14 1q1 -9 -2 -13v0zM192 331q2 -10 8 -11t15 -2q2 3 3 11t-6 7q-8 -5 -20 -5v0zM187 292q9 1 11 -5q3 -7 11 -8q1 10 3 14l3 15 q-10 -1 -14 -1t-14 1v-16v0zM179 249q3 -5 11 -7q8 -1 14 -3q0 7 1 13q2 6 2 12q-7 3 -12 8t-14 5q1 -9 0 -15q-2 -6 -2 -13v0zM194 200q-8 -1 -12 2q-3 4 -11 4q0 -9 -3 -13q-2 -5 1 -11q8 -1 15 2t8 -7q-5 -7 -17 -6q-12 0 -11 -12q5 -7 14 -5q9 1 11 -8q-2 -6 -13 -5 q-10 1 -17 0v-15q6 -5 15 -8t15 -8q8 59 13 121q-8 -2 -14 -2q-7 0 -12 5q-5 -14 7 -17q11 -3 11 -17v0zM154 90q18 1 33 -3q-1 6 0 10q2 4 2 8q-11 -1 -20 1q-8 2 -15 4v-20v0zM43 87q6 1 7 -3q2 -3 6 -5q0 1 1 4q0 1 1 1q1 5 -2 7q-2 3 -5 4q-1 -4 -4 -4q-4 0 -4 -4v0z M146 54q12 2 25 3t13 15q-5 4 -14 5h-19q-3 -5 -3 -11q-1 -4 -2 -12v0z" />
<glyph unicode="J" horiz-adv-x="490" d="M254 737l3 -3q2 -2 5 -3q4 -50 37 -75q34 -24 82 2q10 7 18 16q5 7 15 19q3 5 14 21q7 10 19 15q3 -5 3 -11q0 -4 -1 -9q-4 -10 -7 -21q-11 -67 -19 -141t-22 -146q4 -4 13 -3q8 1 10 -5q0 -12 -14 -10t-14 -10q3 -8 12 -5q8 3 11 -3q-2 -8 -10 -10t-18 -2 q-17 -92 -39 -170t-65 -136q-10 -13 -29 -26q-18 -12 -40 -17q-14 -3 -27 -3q-50 1 -77 35q-22 28 -22 67q0 21 6 46q8 25 41 56t67 3q21 -33 -7 -75q-27 -43 -72 -20q-1 21 5 35q7 14 17 24q9 -1 16 -4l12 -6q1 -12 -2 -18q-4 -7 -10 -10q-10 4 -4 12q5 8 -1 11 q-10 2 -16 -10q-7 -13 -2 -23q18 -7 34 2q17 9 22 28q5 30 -10 44q-15 15 -44 -1q-30 -22 -37 -74t20 -86q22 -12 55 -21t57 11q47 52 75 147q27 95 44 171q-7 3 -15 1q-8 -1 -8 12q5 8 18 9q13 0 13 13q-5 9 -15 7t-11 9q1 11 13 11t18 7q10 58 19 119q9 60 22 117 q-19 -22 -40 -42q-20 -20 -52 -19q-34 4 -46 34t-20 65q-9 -42 -30 -72t-72 -30q-30 10 -34 47q-5 38 21 53q23 6 38 -14t0 -45q-14 -4 -21 5t1 21q6 -2 6 -8q0 -7 7 -8q9 10 1 24q-9 14 -24 12q-24 -10 -13 -39q10 -29 28 -35q49 -4 65 45q17 48 27 93v0zM384 647q5 -5 9 1 q5 6 1 10q-1 -4 -5 -5q-5 -1 -5 -6v0zM290 630q2 10 -3 16q-5 7 -10 4q4 -4 5 -11t8 -9v0zM368 622q9 0 7 6q-3 6 -2 14h-4q-3 0 -3 -2q3 -1 3 -8q-1 -6 -1 -10v0zM307 609v18q1 10 -7 10q-1 -9 0 -17q1 -7 7 -11v0zM343 609h10q2 6 2 12q0 5 1 16q-12 2 -13 -8q-1 -9 0 -20 v0zM328 604q3 4 2 13t0 15h-10q0 -4 -1 -18q-1 -6 9 -10v0z" />
<glyph unicode="K" horiz-adv-x="657" d="M339 455q18 28 38 61l40 66q22 34 47 65q25 32 49 48q38 24 66 4q27 -20 34 -60q1 -11 1 -23q0 -45 -23 -89q-29 -56 -83 -67q-30 -4 -51 12q-20 16 -13 52q3 10 17 25q13 15 29 16q25 -5 22 -31q-3 -27 -25 -28q-16 7 -8 23t21 10q-14 20 -30 4q-15 -15 -16 -34 q4 -38 37 -38q32 1 58 21q26 19 41 57q16 38 13 80q-3 21 -14 44q-11 22 -35 25q-16 0 -35 -13t-29 -23q-11 -11 -22 -27q-10 -16 -22 -32q-31 -41 -59 -89q-29 -49 -53 -97q24 3 55 -5q30 -8 47 -23q23 -61 6 -125t-31 -126q-3 -18 -2 -36l2 -36q-1 -7 -3 -13q-1 -6 0 -12 q8 -24 29 -27q22 -4 40 9q27 22 32 65t-19 52q-13 2 -23 -9t-13 -29q7 0 16 8t22 2q9 -17 -1 -33q-9 -16 -35 -15q-21 27 -6 61q14 35 55 23q25 -47 6 -99t-75 -49q-14 2 -27 13q-12 11 -16 28q-7 68 12 173q20 105 -12 167q-9 12 -24 18q-16 7 -35 0q-18 -79 -34 -155 q-16 -77 -53 -134q-16 -22 -34 -40q-19 -18 -33 -39q-27 -20 -57 -22q-31 -3 -61 16q-23 36 -23 91q0 22 4 46q13 86 68 103q59 0 54 -62t-72 -53q-8 15 -6 33t14 26q34 4 29 -22q-6 -27 -27 -11q0 14 8 9t10 4q-16 18 -22 -1t9 -30q38 -5 48 45t-48 50q-25 -6 -42 -40 q-16 -34 -19 -68q-4 -46 11 -86q16 -39 61 -41q21 1 39 15q17 14 33 26q2 2 2 7v10q44 53 64 124q21 70 28 148q11 86 25 171q14 84 19 174q-21 -36 -42 -75q-21 -38 -53 -61q-24 -15 -50 -13q-25 2 -34 31q-6 26 10 52q15 27 36 27q23 -5 24 -30q0 -26 -27 -28q-5 7 -4 16 t4 17q8 2 7 -6q0 -7 4 -10q5 10 1 18q-5 8 -12 11q-29 -8 -30 -45t28 -42q47 4 84 64q37 61 54 112q8 3 13 2q6 -1 12 4q4 -2 5 -6q-5 -64 -9 -135q-5 -71 -11 -141v0zM491 -193q6 2 12 3q7 1 13 4q1 21 -13 16t-12 -23v0z" />
<glyph unicode="L" horiz-adv-x="560" d="M310 732q-8 -12 -17 -23q-10 -10 -18 -21q-23 -108 -42 -229t-35 -232q-6 -52 -13 -97q-7 -44 -31 -82q39 10 82 6t86 -13q24 -5 45 -13q21 -7 40 -10q40 -4 65 13q24 17 21 52q-5 27 -34 46t-60 11q-21 -9 -26 -35q-4 -25 18 -39q16 0 29 4q14 4 16 20q-12 1 -9 -6 q2 -7 -6 -8q-10 0 -12 10q-1 10 5 17q8 3 20 1q11 -3 17 -9q-5 -26 -24 -35t-48 -4q-21 21 -17 52q5 30 29 44q23 0 42 -2q20 -3 35 -13q25 -16 34 -48q2 -9 3 -18q0 -22 -17 -43q-11 -10 -36 -18q-25 -7 -51 -4q-39 7 -82 22q-43 14 -86 18q-39 2 -72 -10q-33 -11 -55 -35 q-12 8 -12 16q0 4 3 8q6 7 17 21q14 28 25 63q8 25 25 76q11 34 21 72q9 37 16 76q13 77 23 159q10 81 9 153q0 8 -1 24q0 14 -3 23q-2 9 -10 16q-7 6 -9 17q9 6 23 3q14 -4 29 -3q14 2 26 8q5 2 11 2q5 0 11 -3v0z" />
<glyph unicode="M" horiz-adv-x="579" d="M501 726q-22 -95 -37 -198q-16 -104 -26 -211q-9 -74 -15 -150t5 -151q42 8 61 54q20 46 -10 79q-17 -4 -26 -19t2 -27q10 -1 6 7t1 13q12 0 12 -13q1 -12 -4 -19q-43 -4 -33 31q9 34 35 42q20 1 29 -18q8 -16 8 -36v-9q-5 -33 -27 -65t-49 -35q-36 1 -42 43t-2 89 q4 62 17 127q12 66 22 132q9 68 13 132q5 65 17 127q-73 -208 -132 -434q-10 -35 -24 -71q-14 -35 -19 -72q-2 -14 -2 -30q1 -16 -9 -28q-11 10 -8 30q2 13 6 38q10 128 9 270q0 142 4 260q-22 -88 -41 -202q-18 -114 -43 -216q-8 -35 -18 -68t-23 -58q-6 -13 -19 -27 q-14 -14 -29 -15q-43 3 -48 52q-1 13 -1 25q0 36 10 69q13 13 34 15q21 3 29 -17q3 -21 -9 -36q-13 -15 -20 13q5 4 6 -3q1 -6 8 -1q7 11 3 21q-4 11 -15 13q-34 -6 -37 -68q-3 -61 42 -69q23 5 39 41q16 35 24 59q13 35 19 68l12 63q24 116 43 230q19 113 38 228 q27 2 23 -26t-8 -52q-7 -102 0 -230q6 -129 -5 -257q25 69 44 141t41 141q15 47 45 140q23 70 43 140q-1 3 0 5q2 1 2 3q9 -1 15 -5t14 -5v0zM399 147q-2 -24 2 -16q4 7 -2 16v0z" />
<glyph unicode="N" horiz-adv-x="712" d="M559 591q-5 10 -3 22q3 12 10 16q15 4 21 -3q6 -6 7 -17q11 9 9 22t-14 18q-34 3 -46 -44t23 -59q29 -1 57 31q27 33 31 65q1 43 -33 68t-73 -2q-7 -6 -15 -18q-17 -27 -30 -60t-25 -67q-12 -29 -26 -62t-25 -69q-11 -35 -19 -73q-6 -24 -17 -73q-16 -72 -21 -140t4 -141 q-5 -2 -11 -2q-3 0 -6 1q-9 1 -16 4q5 155 13 309q9 154 -1 315q-20 -105 -52 -217q-31 -113 -59 -218q-11 -51 -28 -100t-55 -74h-48q-12 10 -23 17t-20 18q-19 34 -19 82q-1 15 1 32q9 69 74 63q13 -4 28 -16q16 -13 23 -27q12 -41 -10 -75q-23 -34 -61 -11q-17 15 -19 43 q-1 29 19 46q12 -2 23 -2q12 -1 20 -11q13 -26 -4 -44q-16 -17 -29 11q3 8 10 -1q6 -8 15 -1q6 16 -2 28q-9 11 -26 7q-14 -6 -15 -34q-2 -28 28 -37q48 0 43 54q-5 53 -58 60q-17 -1 -30 -12q-13 -12 -18 -28q-14 -52 5 -95t48 -55q29 -8 51 6t32 35q17 36 29 77 q12 40 21 77q11 39 21 80q9 42 20 84q23 84 41 163q18 78 24 168q9 2 15 6q7 4 13 2q1 -76 2 -226q0 -113 -4 -236q28 126 67 241q40 116 100 211q10 2 21 8q10 5 17 5h2q38 -3 61 -29q20 -24 20 -56v-9q-2 -12 -13 -34q-10 -22 -18 -32q-11 -15 -33 -29q-22 -15 -39 -14 q-43 12 -33 68q9 57 55 61q7 0 18 -8q10 -7 12 -22q1 -28 -17 -36q-19 -9 -40 -5v0zM579 601v16h-8q-4 -5 -2 -11q1 -6 10 -5v0z" />
<glyph unicode="O" horiz-adv-x="525" d="M314 694q1 0 2 1t3 1q26 -6 42 -45q17 -38 22 -63q14 -71 9 -157q-6 -87 -19 -159q-9 -47 -24 -83q-15 -37 -40 -71q-16 -26 -46 -45t-66 6q-28 23 -40 76q-12 52 -12 103q0 93 31 200q32 107 74 172q12 18 29 39q18 20 35 25v0zM245 601q-35 -62 -60 -141t-30 -159 q-5 -64 11 -140t67 -85q30 1 53 29q24 27 38 52q17 30 27 63q9 33 15 67q13 80 18 153t-8 136q-7 33 -24 65q-16 31 -40 40q-19 -12 -36 -34q-16 -21 -31 -46v0zM255 132q-42 16 -51 63q-10 47 -5 109q5 83 33 177q28 95 77 140q21 10 30 -30q10 -41 10 -71q0 -36 -3 -79 q-2 -42 -9 -89q-6 -46 -16 -87q-9 -45 -23 -81q-14 -37 -43 -52v0zM209 230q2 -26 13 -53t31 -30q20 3 31 31q12 28 18 52q14 52 23 113t11 116q3 42 1 84q-3 43 -28 63q-48 -51 -78 -161q-30 -111 -22 -215v0zM290 492q13 -32 12 -93t-12 -105q-4 -13 -12 -35 q-9 -21 -25 -21q-13 4 -17 27t-3 41q4 51 20 102q15 50 32 84h5v0zM258 253q27 35 32 96t-5 112q-1 3 -5 2q-14 -43 -31 -109q-16 -66 9 -101v0zM282 387q2 -18 0 -36q-2 -17 -4 -35q-9 -5 -20 -7q-10 19 -2 47q7 29 26 31v0zM263 326q7 6 9 17q1 11 -2 20q-2 -6 -5 -17 q-3 -8 -2 -20v0zM309 733q0 3 3 3q52 -7 93 -43q40 -36 56 -87q6 -18 8 -43q1 -17 4 -50q7 -57 7 -111v-19q-2 -63 -19 -123q-16 -55 -42 -104q-27 -48 -60 -87q-17 -20 -31 -34t-33 -23q-25 -9 -53 -9q-8 0 -16 1q-37 3 -66 23q-23 18 -42 50t-29 60q-25 60 -36 135 q-5 32 -5 64q0 41 8 81q10 41 31 80q20 40 43 74q27 40 57 74q31 34 58 64q18 5 30 14q13 10 34 10v0zM204 645q-55 -68 -91 -204q-36 -137 -19 -257q9 -58 38 -105q29 -48 77 -59q31 -6 63 9q32 14 52 33q22 21 39 55q16 34 32 69q17 38 24 76q8 39 13 79q12 83 12 171 q0 87 -35 147q-13 21 -39 40q-26 18 -46 20q-35 -2 -68 -27t-52 -47v0z" />
<glyph unicode="P" horiz-adv-x="706" d="M349 321q-15 -73 -31 -141t-47 -121q-18 -29 -58 -48q-22 -10 -43 -10q-19 0 -38 7q-11 7 -25 24q-15 17 -20 34q-3 14 -3 29q0 22 7 47q12 40 31 58q38 24 65 2q28 -23 29 -63q-3 -26 -21 -45q-19 -19 -43 -15q-7 2 -16 11q-10 9 -11 19q-1 7 6 22q6 14 16 16 q12 -2 17 -15q6 -13 -2 -21q-11 1 -9 9q3 9 -6 11q-14 -12 -11 -24t16 -16q45 -4 49 47q4 50 -39 62q-37 0 -55 -40q-18 -39 -12 -79q11 -52 55 -63q44 -12 83 21q16 14 22 32q7 19 18 38l27 99q13 51 24 105q10 55 17 113q7 57 13 116q6 49 14 90q9 42 9 87q-38 -3 -68 -12 t-56 -29q-23 -17 -41 -47t-14 -71q1 -13 8 -28q7 -16 20 -23q47 -19 78 21q32 41 35 90q-5 38 -35 21t-6 -48q6 0 9 3t6 4q3 14 -3 19l-12 6q25 15 27 -16q1 -31 -29 -31q-26 10 -17 47q10 37 42 38q5 0 16 -9q10 -9 12 -21q0 -49 -25 -91q-26 -42 -63 -48q-64 -1 -71 57 q-6 57 23 102q36 49 118 69q64 15 131 15q19 0 38 -1q37 -2 67 -10q30 -9 52 -25q12 -18 21 -40q8 -23 9 -48q-5 -125 -94 -199q-89 -75 -206 -93v0zM525 401q30 38 53 128t-5 154q-4 8 -13 20q-10 11 -17 16q-25 11 -58 8t-71 -3q-13 -100 -33 -194q-19 -93 -32 -194 q51 5 94 22q43 18 82 43v0zM591 701q-5 4 -12 9t-14 1q10 -5 15 -12q3 4 9 1q7 -2 2 1v0zM586 683q0 -4 1 -6q2 -1 1 -7q6 4 15 5t16 3q-6 9 -14 8q-7 0 -19 -3v0zM593 660v-15q10 7 20 2q11 -5 21 -2q0 7 -2 10q-3 3 -3 8q-10 1 -19 0q-6 -1 -17 -3v0zM377 608q0 10 3 20 q4 11 -1 20q1 -11 -3 -22q-4 -10 1 -18v0zM596 615q8 3 18 3h22v17q-9 -3 -24 -3q-14 0 -16 11q-2 -3 0 -11q1 -8 0 -17v0zM596 605q1 -7 -1 -12t-2 -10q11 1 23 2q13 1 20 0v23q-12 1 -22 -3t-18 0v0zM591 568v-16q13 3 22 5q10 3 18 0q1 5 2 8q1 4 1 10q-12 -1 -23 -2 q-11 -2 -20 -5v0zM588 539q0 -5 -2 -10q-3 -6 2 -10q8 7 16 7q8 1 20 3q2 4 3 9q0 3 2 9q-12 0 -20 -4q-9 -3 -21 -4v0zM583 512q1 -5 -1 -7q-2 -1 -2 -6q10 0 17 2t17 1q-1 6 1 9l4 6q-11 -1 -19 -4q-8 -4 -17 -1v0zM573 472q5 -2 10 0q5 3 13 0q1 6 4 9q4 4 6 8 q-12 -1 -22 -3q-11 -2 -11 -14v0zM558 429q6 8 13 14q8 7 12 16l-8 -2q-3 -2 -10 0q0 -8 -4 -16t-3 -12v0z" />
<glyph unicode="Q" horiz-adv-x="605" d="M497 89q7 2 1 11q-5 10 4 14q12 0 15 -9q2 -9 1 -21q-33 -28 -42 19q-10 47 32 53q14 -2 25 -20t14 -35v-12q0 -25 -12 -49q-15 -30 -38 -37q-7 -1 -14 -1q-27 0 -41 21q-17 26 -22 71q-34 -34 -71 -63q-36 -29 -100 -25q-22 3 -43 18q-20 14 -35 31q-20 23 -38 58 q-17 34 -29 64q-32 86 -32 182q0 23 2 47q9 123 67 213q24 38 68 73q44 36 87 44h11q53 0 94 -35q45 -40 62 -89q43 -122 32 -259q-10 -138 -65 -236q4 -39 14 -71q9 -32 48 -27q17 4 30 25q13 22 14 42q0 15 -7 33t-19 21q-21 2 -25 -19q-4 -20 12 -32v0zM468 546 q-1 14 -6 33q-6 20 -14 35q-14 24 -47 56q-33 33 -54 45q-35 16 -73 2q-38 -15 -64 -41q-73 -77 -97 -213q-23 -135 14 -268q14 -43 32 -84q19 -40 40 -64q10 -9 24 -18q15 -8 29 -10q69 -6 104 35q35 42 56 94q-6 16 -10 33q-3 18 -13 29q-7 -20 -22 -60q-10 -30 -28 -54 q-36 -45 -74 -28t-58 67q-10 29 -18 67q-8 37 -13 75q-13 113 2 222q16 108 71 164q16 15 44 28q28 14 46 11q11 -4 23 -17q12 -14 19 -25q24 -41 34 -96q10 -56 10 -110q-1 -60 -9 -117q-9 -58 -22 -106q8 -14 13 -31q6 -16 13 -31q28 78 44 179q16 100 4 198v0zM376 647 q-12 10 -21 22q-10 12 -24 20q-120 -33 -142 -174t8 -279q9 -50 25 -101t50 -59q20 -2 37 9t25 24q17 25 28 56q11 32 19 63q-7 9 -15 22q-9 13 -16 9q-7 -27 -16 -58q-8 -31 -33 -35q-18 1 -30 17q-12 15 -17 30q-17 48 -23 122q-6 73 2 137q7 41 19 72q12 32 28 60 q11 20 24 38q14 17 35 15q4 -5 10 -17q5 -8 14 -13q1 -89 0 -175q-1 -87 -8 -169q7 -11 15 -20t19 -17q26 98 25 209t-38 192v0zM259 531q-18 -59 -20 -124q-2 -64 10 -127q5 -31 15 -60q11 -29 39 -38q11 8 18 22q6 14 10 29q-28 0 -31 26t-2 50q-7 82 -9 180q-3 98 32 153 q-20 -19 -36 -48q-15 -29 -26 -63v0zM319 609q8 0 15 -1q4 -1 13 -2q4 4 1 7t-4 9q-22 2 -25 -13v0zM311 583q9 -4 21 -4t20 -4v18q-13 3 -24 2q-12 -2 -17 -12v0zM306 565q-1 -4 -3 -8q-1 -4 0 -11q12 2 26 3q15 1 23 -5v18q-9 4 -22 5q-12 1 -24 -2v0zM301 515q11 5 25 3 q9 -1 26 -3q-2 23 -25 24q-24 1 -26 -24v0zM301 495q14 0 25 -2q12 -2 26 -1q-5 18 -26 15q-22 -3 -25 -12v0zM298 467q14 5 28 2q13 -2 26 -8v16q-13 5 -33 8q-19 3 -21 -18v0zM298 443q10 2 28 2t26 -10q0 21 -24 24q-25 3 -30 -16v0zM301 433v-21q15 3 27 3q13 1 24 -6 v16q-6 2 -23 9q-13 5 -28 -1v0zM301 401q1 -5 1 -10q1 -6 4 -10q10 5 22 4l24 -4q0 19 -17 22q-16 3 -34 -2v0zM303 370q1 -4 2 -9t1 -11q13 -2 24 1q11 2 20 -1q0 21 -15 23q-16 3 -32 -3v0zM308 337v-15q6 -2 18 -1q13 1 21 -2q2 17 -11 20q-14 2 -28 -2v0zM311 301 q5 -7 14 -8q9 -2 17 -5q8 14 -8 20q-16 5 -23 -7v0zM329 249q5 4 7 10q3 5 3 13q-5 3 -12 6q-6 3 -16 2q2 -11 5 -20t13 -11v0z" />
<glyph unicode="R" horiz-adv-x="592" d="M413 489q34 -16 44 -60t5 -92q-7 -68 -29 -135q-23 -67 -30 -121q-2 -26 7 -41q10 -14 27 -24q55 -3 84 36q28 39 22 84q-3 15 -16 31q-14 16 -32 16q-16 -1 -27 -18q-11 -16 -13 -31q0 -35 21 -44q20 -9 21 29q-6 5 -9 -5q-3 -9 -11 -3q-2 13 4 19q6 5 19 4 q12 -11 10 -26q-1 -15 -8 -27q-20 -10 -36 -1t-21 26q2 90 55 84q53 -5 53 -86q-5 -40 -32 -72q-27 -31 -73 -32h-3q-18 3 -37 21t-20 45q0 11 4 25t6 25q10 62 21 134t11 136q0 26 -6 48q-7 22 -24 32q-33 1 -52 -12t-41 -23q-21 -76 -33 -163q-12 -88 -42 -159 q-14 -33 -46 -66q-32 -32 -69 -22q-37 17 -61 70q-19 44 -19 85v15q9 48 50 67q41 18 75 -12q27 -33 9 -70q-19 -36 -71 -20q-26 37 6 62q33 25 49 -30q-7 -12 -19 -17q-12 -4 -16 15q3 8 10 1t10 4q-2 28 -24 18q-23 -9 -11 -41q38 -16 54 14q17 30 -7 59q-33 22 -66 4 q-33 -17 -39 -54q-3 -44 17 -90t48 -63q55 -20 83 43q27 64 35 110q11 53 19 101q9 33 17 65q9 33 4 64q13 30 22 73q6 28 18 85q15 70 25 133q-46 -6 -97 -37t-51 -91q10 -53 49 -37t49 57q2 52 -24 38q-27 -14 -9 -48q18 7 10 15q-8 9 -7 18q25 4 20 -18q-4 -21 -18 -30 q-34 13 -20 52q14 40 45 26q18 -16 13 -48q-5 -31 -18 -50q-24 -29 -54 -27q-31 3 -43 35q-16 66 41 108q58 42 117 52q2 5 7 8q23 -4 50 -6q28 -2 52 -15q56 -48 44 -122q-13 -74 -78 -103v0zM395 489q22 25 44 54t18 69q-3 24 -14 44q-11 21 -25 38q-13 3 -22 9t-23 6h-5 q-12 -65 -29 -131q-16 -65 -24 -129q18 12 38 22q19 11 42 18v0zM345 679q6 0 6 9t-3 11q0 -6 -3 -11q-3 -4 0 -9v0zM333 639q10 0 11 9q0 10 4 16h-10q-3 -13 -5 -25v0zM328 599q8 9 10 25q-3 1 -4 2t-4 1q-1 -5 -4 -14q-3 -8 2 -14v0zM313 554q12 -1 13 11q0 12 2 22h-8 q0 -10 -2 -18q-3 -7 -5 -15v0zM307 514q1 3 3 2q2 -2 5 -2q2 6 3 13q0 7 2 13h-10q1 -9 -3 -15t0 -11v0zM297 474q11 -1 12 8q1 8 1 17h-8q-2 -5 -2 -12q-1 -7 -3 -13v0zM295 439q4 5 6 13q1 7 -6 9q-2 -4 -5 -12q-2 -8 5 -10v0zM287 389q0 8 3 15q3 8 0 12q-5 -3 -9 -14 q-3 -12 6 -13v0zM277 351q0 7 4 14q4 6 -1 11q-2 -4 -5 -12q-2 -8 2 -13v0zM264 312q6 2 9 12q3 11 -3 13q-4 -12 -6 -25v0zM257 276q6 1 7 10q2 8 -2 13q-2 -5 -3 -11q-2 -5 -2 -12v0zM249 236q6 2 10 13q3 10 -4 12q-3 -5 -3 -12q-1 -7 -3 -13v0zM242 203q7 1 8 8t2 12 q-2 1 -3 2q-2 1 -4 1l-2 -10t-1 -13v0zM235 168q7 2 9 13q2 10 -7 10q1 -7 -1 -11t-1 -12v0z" />
<glyph unicode="S" horiz-adv-x="476" d="M327 544q-10 -22 -29 -36t-47 0q-8 22 -2 44q7 23 25 26q23 -4 24 -25t-26 -14q-7 9 3 9q11 0 10 9q-15 13 -25 -10q-9 -22 9 -34q16 -4 29 7q14 12 16 24q0 16 -15 33q-15 16 -35 16q-21 -5 -32 -35t-6 -53q13 -41 60 -43q46 -3 81 27q5 21 14 35t12 33q7 63 -31 110 q-37 47 -95 52q-55 0 -84 -48q-29 -49 -30 -103q2 -65 34 -111q31 -47 69 -71q71 -3 114 -41q43 -37 52 -100q6 -60 -18 -122q-25 -62 -70 -95q-36 -24 -81 -26h-15q-38 0 -77 8q-10 5 -21 10q-11 4 -25 5q-15 16 -27 24t-20 17q-20 33 -20 66q0 40 26 81q49 77 136 62 q36 -10 53 -43q17 -34 -4 -80q-5 -10 -22 -27q-16 -16 -32 -22t-38 -5t-32 10q-12 15 -8 39q4 25 13 38q19 22 52 27t36 -32q-2 -29 -25 -36q-22 -7 -42 2q-2 26 13 34q11 -1 17 -6q6 -6 9 -15q12 5 14 19t-9 22q-20 -1 -36 -8t-24 -20q-12 -24 -3 -44q8 -20 42 -18 q41 7 63 47q23 40 2 80q-17 23 -53 29q-37 6 -66 -14q-15 -12 -26 -41t-10 -59q1 -39 20 -71t49 -58q22 -4 65 -10q24 -3 57 10q24 10 48 35t34 52q23 58 14 135q-9 76 -60 111q-42 19 -97 17t-96 16q-46 30 -44 95q1 65 23 119q22 61 63 96t115 36q37 -8 62 -17 q25 -10 44 -27q37 -39 37 -88q0 -24 -9 -50q-27 -79 -103 -102q-37 -7 -67 9q-31 16 -36 53q-2 22 11 54q13 33 37 39q24 2 42 -17q17 -19 24 -45v0zM140 568q2 4 4 11q2 8 -1 11q0 -5 -4 -12q-4 -6 1 -10v0zM133 518q5 1 10 5q5 5 0 11q-2 -5 -7 -7q-5 -1 -3 -9v0zM133 500 q2 0 2 -4v-7q8 3 13 7q6 4 5 14q-6 5 -11 -1q-4 -6 -9 -9v0zM138 469q7 -2 15 3t8 15q-8 -3 -14 -6q-7 -4 -9 -12v0zM145 456q0 -5 1 -8q2 -3 2 -7q18 5 28 18q-4 0 -5 5q0 4 -5 5q-5 -3 -8 -8q-4 -5 -13 -5v0zM158 420q12 1 19 6t7 17q-11 -1 -20 -8q-8 -6 -6 -15v0z M179 407q9 1 14 7q6 6 -1 11q-4 -4 -10 -8t-3 -10v0zM200 397q10 -5 16 5q-5 1 -6 4q-2 3 -5 4q-1 -4 -3 -6q-2 -3 -2 -7v0zM187 154q0 5 -3 6q-3 2 -8 2q-1 -6 2 -8q3 -1 9 0v0zM378 100q2 6 6 11q5 5 2 10q-3 -5 -7 -11t-1 -10v0z" />
<glyph unicode="T" horiz-adv-x="723" d="M670 722q-6 -12 -17 -7t-16 7q-28 -12 -55 -34q-28 -21 -65 -24q-32 -1 -63 8q-31 8 -60 17q-13 -45 -22 -98q-6 -36 -19 -109q-15 -84 -33 -161q-18 -78 -33 -168q-4 -32 -6 -69t-14 -58q-16 -20 -39 -22q-24 -1 -45 -1q-13 8 -27 14t-22 19q-20 40 -7 89q14 49 61 40 q13 -5 17 -23q3 -19 -2 -40q-5 -3 -13 -8q-7 -3 -18 -2q-2 10 -2 18q0 7 5 12q7 1 7 -5q1 -6 1 -13q10 8 11 22q0 14 -6 27q-70 -13 -52 -83q18 -69 83 -50q10 6 16 22t9 32q10 68 22 147q11 79 26 162t29 163q14 81 25 153q-59 17 -132 20t-90 -55q-4 -25 1 -49t14 -43 q31 -30 59 -1q28 30 26 75q-11 35 -39 24q-29 -10 -25 -42q6 -17 23 -18q18 0 18 26q-5 8 -14 3t-15 -1q5 14 20 14q14 0 21 -11q3 -33 -23 -39t-41 16q-1 31 11 50q13 19 38 19q45 -11 33 -74q-11 -63 -66 -67q-48 13 -53 81q-1 8 -1 15q1 56 38 80q93 18 189 -5 q95 -22 187 -18q39 9 72 29q15 9 31 8q20 0 42 -14v0z" />
<glyph unicode="U" horiz-adv-x="598" d="M289 730q-31 -90 -53 -193t-50 -201q-2 -8 0 -11q2 -4 2 -9q-4 -3 -5 -6q-2 -4 -5 -7q-15 -71 -32 -148t17 -137q74 16 117 66q42 50 79 111q21 29 41 60q19 30 32 63q34 93 52 198q19 106 47 214q7 1 15 2q9 1 15 -4q-24 -119 -53 -250t-58 -258q-10 -40 -19 -83 q-9 -42 -7 -79q3 -8 8 -19q5 -12 2 -23q11 -2 20 2q9 3 16 8q21 17 39 63q17 46 -11 58q-18 2 -26 -14t-9 -34q3 2 10 5q7 4 15 -3q5 -13 -2 -23q-6 -10 -16 -15q-28 18 -18 56q11 38 43 41q18 -3 24 -19q7 -17 4 -42q-4 -33 -34 -72q-20 -26 -45 -26q-12 -1 -25 5 q-7 5 -13 17q-7 12 -9 23q-8 56 2 119q10 62 25 110q-25 -43 -64 -99q-38 -56 -76 -102q-21 -25 -48 -44q-27 -18 -63 -24q-23 -3 -35 3l-28 14q-3 17 -13 28q0 91 22 178t42 177q13 63 28 126q10 41 29 123q-12 -20 -21 -39q-10 -19 -21 -34q-9 -10 -23 -22 q-15 -13 -30 -16q-21 -2 -36 10q-14 12 -17 28q-1 6 -1 12q0 32 19 61q22 34 38 40q56 8 48 -50q-7 -57 -54 -58q-27 11 -19 45q7 34 37 31q23 -13 9 -37t-29 6q6 3 14 -3q8 -7 9 8q-6 23 -26 0t8 -40q33 1 43 39q10 39 -20 49q-40 -2 -60 -59t27 -69q15 0 30 10 q16 10 25 20q24 28 39 67q16 39 26 82q12 -4 23 -4q11 1 33 -2v0zM238 695q8 -4 18 -4q9 1 7 14q-7 -1 -12 1q-5 3 -10 5q-1 -5 -2 -7q-1 -3 -1 -9v0zM231 663q7 -2 11 -2q3 0 11 -1q0 6 1 10q2 3 2 8q-7 0 -10 2q-3 1 -13 3q2 -7 0 -11t-2 -9v0zM223 622q6 0 10 -1 q4 -2 10 -1q3 7 4 14q1 8 4 14q-13 -1 -23 2q-2 -6 -3 -13q-2 -6 -2 -15v0zM213 592q6 -4 12 -2t13 2q0 5 1 7q2 2 2 5q-4 4 -11 5t-12 3q-1 -6 -5 -20v0zM208 577q0 -7 -2 -12q-2 -6 -3 -13q7 -1 12 -4t13 -1q7 18 6 27q-1 8 -26 3v0zM196 517q4 -2 10 -4q5 -2 12 -1 q5 9 5 22q-7 0 -13 2q-5 2 -12 3q1 -6 -1 -11q-3 -4 -1 -11v0zM186 471q6 1 10 -2q3 -3 10 -3q7 13 7 33q-6 0 -11 2q-5 3 -9 6q-3 -8 -4 -18l-3 -18v0zM201 441q-1 4 1 6q3 1 1 7q-4 1 -9 2q-5 2 -11 5q-5 -9 0 -16t18 -4v0zM171 406q4 -2 9 -4q6 -2 13 -1q-1 9 1 14 q2 6 2 13q-8 0 -11 2q-3 3 -9 3q0 -8 -2 -14t-3 -13v0zM163 371q6 1 10 -2q4 -2 10 -1q1 3 2 9q2 5 1 11q-7 -1 -10 2q-3 1 -8 3q-2 -12 -5 -22v0zM156 331q6 0 10 -1q4 -2 10 -2q-1 8 2 14q2 6 3 14q-7 -1 -12 0q-3 1 -8 2q-1 -8 -4 -14q-2 -5 -1 -13v0zM148 300q4 -2 8 -3 q4 -2 10 -2q0 6 3 10q2 4 2 11q-5 2 -9 3q-5 2 -9 4q0 -7 -3 -12q-2 -4 -2 -11v0zM141 262q6 1 10 0q2 -2 7 -5q-1 8 1 12q2 5 4 8q-6 8 -17 11q-2 -7 -4 -12t-1 -14v0zM133 235l8 -4q3 -2 10 -1q0 4 1 6q2 3 1 9q-5 2 -9 3q-5 2 -8 4q-1 -4 -3 -8q-1 -3 0 -9v0zM126 205 q4 -2 7 -3q4 -1 10 0q0 4 2 7q1 3 1 8q-11 2 -15 8q-3 -4 -4 -10q0 -6 -1 -10v0zM120 187v-15q5 0 7 -2q3 -2 6 -3q4 9 5 23h-10q-5 -1 -8 -3v0zM115 139q5 1 8 -1q2 -2 8 -1q-2 5 0 6q2 2 2 7q-4 8 -15 10q-3 -4 -3 -10v-11v0zM115 109q6 1 11 3t5 10q-3 5 -8 6q-6 1 -10 4 q-2 -8 -2 -13q-1 -6 4 -10v0zM126 76q3 6 3 10q-1 5 -1 13q-5 -4 -11 -2q-6 3 -9 -1q0 -7 4 -12q3 -6 14 -8v0zM475 86q-8 0 -12 2q0 -7 5 -8q6 -2 7 6v0zM131 48q2 5 1 10q-2 6 -6 8q-2 -3 -8 -3q-6 1 -8 3q0 -9 6 -13t15 -5v0zM141 23q-1 7 -7 11t-11 -1q4 -2 8 -6 q3 -3 10 -4v0z" />
<glyph unicode="V" horiz-adv-x="606" d="M445 572q-21 25 -3 44q18 20 35 -9q6 13 2 24q-3 12 -14 19q-19 -7 -29 -16t-19 -24q-14 -21 -18 -53q-5 -31 33 -35q37 2 65 41q29 39 33 82q2 28 -5 49q-7 22 -28 25q-16 1 -34 -12q-18 -12 -28 -23q-56 -59 -92 -141q-37 -83 -64 -174t-53 -184t-49 -183q-11 1 -25 4 q-15 3 -25 11q25 150 46 306q22 156 24 322q-6 -43 -43 -56t-62 18q-8 16 -8 32q0 29 28 57q44 43 88 31q12 -7 19 -22q6 -16 8 -36q6 -68 -2 -145q-5 -53 -15 -157q-7 -79 -14 -156q-6 -77 -16 -147q29 98 55 186q26 87 57 184q23 73 51 131q29 58 72 112q18 26 54 48 q14 9 27 9q19 0 34 -20q11 -21 11 -48q0 -17 -5 -36q-11 -50 -36 -80q-13 -15 -33 -28q-20 -12 -37 -12q-61 10 -35 77q26 68 72 72q34 -10 20 -49q-13 -38 -42 -38v0zM175 717q-33 -7 -63 -37q-29 -30 -10 -65q19 -23 49 -14q29 10 36 39q-2 50 -39 33t-1 -41q10 6 11 16 t9 19q9 -42 -22 -44t-31 34q5 13 24 25q19 11 32 10q10 -2 14 -11q4 -8 13 -19q2 21 -6 32q-8 12 -16 23v0zM455 590q3 2 7 5q4 2 3 10q-2 3 -5 5q-2 3 -8 2q1 -7 -2 -14q-2 -6 5 -8v0z" />
<glyph unicode="W" horiz-adv-x="723" d="M214 108q21 56 45 110q23 55 57 98q9 -11 13 -27l9 -30q14 -42 24 -91q9 -49 16 -98q24 108 47 239q22 131 58 241q12 38 25 74q14 36 32 63q10 16 28 29t36 16q69 -2 69 -69v-12q-7 -80 -59 -103q-72 -2 -58 59t61 65q30 -10 21 -41t-41 -13q-5 9 1 17t14 10q5 -6 0 -11 q-4 -4 0 -9q13 1 16 15t-11 20q-32 0 -47 -50q-15 -49 32 -52q50 16 60 89t-62 70q-10 -2 -26 -14q-15 -12 -24 -23q-27 -37 -44 -85q-17 -49 -31 -97q-17 -54 -26 -112l-18 -117q-12 -64 -28 -130q-15 -66 -22 -136q-26 8 -45 22q15 59 2 129q-13 69 -22 132 q-16 -9 -25 -26q-8 -16 -15 -33q-22 -48 -43 -102t-32 -115q-8 0 -20 4q-13 3 -22 9q23 116 38 252q15 137 14 245q2 58 -1 112q-4 55 -39 85q-37 3 -73 -28q-36 -32 -26 -89q14 -39 52 -28q38 12 47 48q1 48 -31 42q-33 -7 -21 -44q19 1 16 14q-2 13 -4 23q10 -2 14 -11 q3 -9 4 -19q-8 -18 -24 -20q-17 -2 -23 20q-3 27 20 43q22 16 44 4q24 -19 13 -59q-11 -39 -43 -53q-17 -5 -32 0q-16 6 -37 18q-5 21 -4 45v9q1 29 14 53q18 27 56 40q38 14 68 -3q39 -31 47 -103t3 -139q-5 -92 -15 -190q-11 -99 -22 -182v0zM348 172q3 5 1 13t-8 10 l2 -14q0 -6 5 -9v0zM356 143v12q-1 5 -8 5q-1 -7 1 -12q1 -5 7 -5v0zM358 113q4 2 2 8q-2 7 -7 7q-1 -3 -1 -9q1 -6 6 -6v0zM363 83q1 6 -1 11q-2 4 -9 4q1 -4 3 -10q1 -6 7 -5v0zM356 68v-13q4 1 7 -1q4 -3 5 1q-4 2 -3 8q2 7 -4 7q-1 -3 -5 -2v0zM366 25q-2 5 1 7q2 2 1 6 q-4 3 -12 2q-2 -14 10 -15v0z" />
<glyph unicode="X" horiz-adv-x="776" d="M476 490q21 66 53 120q33 54 82 92q12 2 36 7q15 3 30 -2q33 -15 50 -70q8 -28 8 -54q0 -23 -7 -44q-6 -14 -20 -30q-14 -15 -26 -19q-16 -1 -34 9t-24 22q-10 26 -1 55q10 30 39 29q27 -7 27 -37q0 -29 -24 -32q-16 2 -18 16q-1 13 2 22q4 -6 6 -16q1 -9 10 -12 q19 12 15 27t-18 19q-22 2 -28 -19q-6 -22 -2 -38q4 -17 18 -26q13 -9 25 -8q20 3 33 24q13 20 15 32q10 74 -27 119t-93 3q-25 -24 -47 -67q-22 -42 -34 -89q-22 -83 -30 -172q-8 -88 10 -176q2 -11 6 -32q3 -16 6 -29q11 -33 48 -68q38 -35 75 -34q59 20 64 110 q6 90 -70 96q-20 -3 -38 -23q-17 -21 -15 -48q2 -13 11 -25t22 -13q13 0 22 10t9 23q-1 7 -7 16t-16 -3q4 -9 8 -2q5 7 9 -1q1 -10 -5 -13q-6 -4 -15 -5q-8 8 -9 18q0 10 1 20q13 3 20 2t16 -4q15 -28 2 -51q-12 -23 -35 -23q-51 13 -41 72t69 65q89 -27 73 -138 q-13 -93 -84 -92q-15 0 -32 4q-17 8 -37 24q-19 17 -32 32q-33 44 -51 115q-17 71 -23 147q-9 -35 -19 -70q-11 -35 -29 -70q-13 -26 -28 -52q-14 -27 -30 -44q-20 -21 -49 -42q-28 -20 -56 -30q-77 -26 -137 7q-51 27 -50 104q0 14 1 29q8 46 45 88t88 39q59 -14 65 -72 q6 -59 -52 -75q-52 -3 -46 32q5 35 41 36q13 -3 20 -19q6 -16 -18 -24q-7 8 -4 14t9 12q-35 7 -38 -21q-3 -27 41 -18q17 7 29 23q12 17 14 31q0 25 -20 46q-19 22 -46 25q-70 -3 -104 -84t12 -145q32 -27 73 -29q41 -1 80 17q31 13 64 38t48 48q12 20 19 47t17 57 q5 18 13 34q8 17 12 35q8 45 16 104q9 60 12 120q4 60 -6 111q-9 51 -47 77q-72 19 -118 -21q-47 -39 -53 -106q-4 -46 16 -76t61 -31q39 5 56 53q17 47 -23 74q-18 -8 -33 -21t-13 -35q7 -24 31 -20q25 4 27 28q-1 13 -7 15q-5 1 -8 13q33 0 24 -34q-10 -34 -39 -40 q-15 1 -24 12t-17 24q5 50 44 63q40 12 53 -43q2 -34 -17 -64q-19 -29 -42 -35q-21 -4 -40 4t-29 16q-44 44 -24 117q20 74 55 105q39 32 84 32h5q47 -2 79 -42q24 -36 30 -89t5 -113v0z" />
<glyph unicode="Y" horiz-adv-x="620" d="M494 599q-12 30 -2 58q11 28 47 19q13 -15 10 -39t-27 -18q0 9 8 13q7 3 9 11q1 12 -10 23q-13 1 -19 -5t-11 -13q-2 -23 7 -35q8 -13 26 -17q9 7 19 10t18 13q20 36 2 74q-17 39 -54 20q-25 -18 -34 -63t-14 -93q-7 -89 -26 -165q-18 -76 -91 -96q-14 -62 -15 -140 q0 -79 20 -146q-15 -7 -37 -7h-2q-23 0 -43 5q-5 10 1 19q6 10 9 18q5 17 6 37q2 20 2 38q2 42 3 82q2 40 -3 79q-23 15 -36 19q-14 4 -31 18q-35 31 -44 85t-13 114q-2 58 -8 128q-7 70 -52 70q-16 -2 -29 -15q-14 -12 -6 -32q16 -2 13 14q-4 16 12 16q13 -5 0 -27 q-13 -21 -32 -18q-14 9 -14 21q0 9 7 20q18 27 37 34q22 7 39 3q17 -3 38 -11q2 -7 8 -11q6 -5 9 -11q24 -56 23 -141q-2 -85 17 -152q10 -29 35 -54q26 -25 64 -23q40 6 69 42t41 80q12 60 18 127q5 67 26 119q10 20 27 30q14 8 33 8q5 0 10 -1q20 -15 31 -46q5 -17 5 -34 q0 -13 -3 -27q-11 -26 -40 -37q-29 -10 -53 10v0z" />
<glyph unicode="Z" horiz-adv-x="454" d="M166 736q9 -6 11 -14q3 -9 8 -17q28 -30 72 -25q45 5 77 28q0 5 2 13t8 13q14 1 24 1q9 0 17 -8q-9 -28 -25 -59t-29 -63q-47 -114 -99 -226q-52 -113 -98 -229q16 5 48 17q28 11 64 9q15 -14 23 -35q9 -21 16 -47q5 -23 14 -48t27 -30q14 -1 28 10q15 11 21 19 q19 24 30 68q10 43 -25 51q-29 -1 -47 -36q-19 -34 3 -59q8 2 14 7q5 5 6 15q-11 5 -11 -6q-1 -11 -6 -9q-11 13 1 24t28 3q-2 -39 -28 -42t-26 42q7 37 41 62q34 24 62 -15q0 -18 -2 -34q-1 -17 -5 -30q-11 -28 -35 -56q-23 -27 -48 -27h-3q-18 5 -31 28q-12 24 -17 50 q-5 25 -14 52t-28 34q-28 5 -62 -10q-34 -14 -48 -30q-19 -24 -26 -54t-22 -57q-11 1 -20 1q-8 0 -20 -1q3 24 16 44q12 20 23 41t19 43q7 23 15 44q53 127 113 252t112 255q-33 -23 -85 -23q-51 -1 -79 28q-5 -41 -12 -76q-8 -34 -24 -55q-6 -8 -16 -17q-11 -8 -21 -11 q-54 -3 -64 49q-2 12 -2 23q0 38 25 67q4 5 14 10q10 6 15 8q42 -2 45 -53q2 -51 -37 -62q-40 2 -37 41q3 38 37 42q22 -5 20 -29t-20 -30q-7 4 -11 10q-5 5 -1 12q5 5 8 -1q2 -6 8 -6q4 7 5 16q0 9 -7 14q-10 3 -17 -4q-7 -6 -12 -14q3 -46 30 -36q26 10 23 51 q-15 55 -50 28t-30 -84q3 -14 17 -28q15 -14 34 -14q17 3 30 18q14 15 22 31q13 35 14 71q1 35 5 66q2 0 5 -1v0z" />
<glyph unicode="a" horiz-adv-x="349" d="M310 76q-5 2 -10 7t-10 2q-3 -11 5 -17t-2 -18q-31 6 -22 39q10 32 42 28q10 -20 10 -39q0 -23 -15 -45q-27 -40 -64 -20q-26 22 -24 70q1 48 4 85q-21 -52 -49 -104q-27 -51 -84 -63q-7 -1 -12 -1q-10 0 -16 3q-9 4 -26 7q-17 30 -17 61t16 64q32 66 72 111q20 24 35 38 q14 14 40 31q10 7 29 21q13 8 35 11q16 43 9 83q-7 39 -50 44q-31 1 -57 -20t-35 -52q5 -4 10 -2q4 2 11 5q7 2 2 11q-6 8 3 12q31 -11 6 -31q-25 -19 -46 -7q-7 29 14 54q20 24 38 36q36 24 71 24q11 0 22 -2q47 -10 42 -86q-7 -51 -24 -109q-16 -58 -25 -116 q-5 -33 -5 -96q1 -62 34 -71q19 1 30 19t13 33v0zM100 171q-19 -28 -32 -63q-14 -35 -6 -69q19 -15 43 -14t41 17q38 43 62 136t33 143q-40 -28 -77 -67t-64 -83v0z" />
<glyph unicode="b" horiz-adv-x="448" d="M117 406q43 58 57 150q13 93 46 154q6 11 20 20q11 7 21 7h5q13 -4 18 -20q5 -17 6 -30q-2 -38 -23 -85q-22 -47 -44 -81q-9 -14 -27 -43q-12 -21 -33 -36q-22 -104 -24 -224t57 -190q62 36 85 117t5 174q-15 2 -32 6t-28 17q1 16 6 28q5 11 11 22q24 0 34 -14 q11 -13 19 -29q32 8 58 26t58 17q-21 -22 -51 -34q-31 -13 -58 -29q23 -55 29 -118q5 -63 -19 -114q-18 -31 -50 -59q-31 -27 -53 -33q-11 -3 -21 -3q-16 0 -29 7q-22 12 -36 32q-21 90 -8 184t28 184q-15 -8 -27 -32q-13 -24 -40 -21q-20 9 -20 30q0 11 6 26q17 42 57 33 q4 -9 4 -21q-1 -12 -7 -18v0zM174 495q32 42 57 98q24 56 23 115q-4 0 -5 2q-2 3 -5 4q-29 -45 -45 -103q-17 -58 -25 -116v0zM78 383q2 -1 4 -1q2 -1 3 -3q13 -1 22 9q8 9 8 14q-1 -6 -7 -6q-6 -1 -14 0q-5 5 -4 14t-2 6q-5 -6 -8 -14q-4 -7 -2 -19v0zM277 342q-1 8 -5 11 q-4 4 -5 10h-17q0 -13 9 -16q9 -2 18 -5v0z" />
<glyph unicode="c" horiz-adv-x="395" d="M267 313q-16 41 14 54t24 -33q-11 -6 -19 -2q-7 5 -10 14q-3 -22 15 -23q18 0 29 8q17 16 14 41q-2 25 -11 44q-11 4 -20 7q-8 4 -13 17q-52 8 -97 -11q-44 -18 -67 -48q-43 -59 -55 -153q-12 -95 43 -156q28 -28 77 -48q50 -20 93 -6q24 10 43 38q19 27 17 66 q-2 17 -16 35q-14 19 -38 18q-15 -4 -25 -23q-9 -19 -4 -36q2 -6 12 -14q11 -7 17 11q0 10 -6 3q-7 -7 -11 0q16 35 30 6q14 -28 -19 -38q-34 1 -36 41q-1 41 31 61q32 2 49 -12q18 -13 28 -35q1 -12 1 -24q0 -87 -72 -107q-33 -9 -66 -9q-49 0 -97 19q-44 31 -71 79 q-21 37 -21 85q0 14 1 28q11 68 47 124t74 94q32 16 67 27q23 8 47 8q12 0 24 -2q14 -12 32 -25q18 -14 24 -40q7 -43 -15 -70t-64 -13v0z" />
<glyph unicode="d" horiz-adv-x="494" d="M398 736q0 -35 -9 -71q-8 -37 -16 -77q-6 -37 -11 -76q-4 -40 -11 -80q-14 -78 -31 -155q-16 -77 -23 -148q-3 -30 -1 -64t23 -44q37 3 72 24q36 22 37 59q-9 38 -43 35t-23 -50q18 -3 17 10q-2 12 12 5q19 -29 -12 -34q-32 -4 -42 31q1 51 48 56q48 6 61 -46v-3 q0 -42 -37 -74q-38 -33 -79 -35q-44 4 -49 42q-5 39 2 74q-23 -25 -45 -62t-64 -47q-62 -7 -93 38q-26 38 -26 85v15q16 114 94 202q78 87 177 112q13 72 28 140l30 138h14v0zM254 404q-58 -47 -108 -139t-47 -172q2 -25 20 -46q19 -22 48 -23q30 5 59 38t42 64 q20 47 35 119q15 73 19 130q3 20 2 38q-2 19 -9 19q-13 -4 -30 -11t-31 -17v0z" />
<glyph unicode="e" horiz-adv-x="420" d="M108 214q-14 -85 25 -129t100 -62q46 13 76 41q31 27 34 84q-9 3 -19 -7q-9 -10 -21 3q0 33 24 33q25 0 35 -26v-12q0 -80 -98 -122q-39 -17 -71 -17q-57 0 -96 52q-31 67 -31 129q1 64 34 124q65 116 181 159q9 1 18 1q46 0 57 -28q12 -33 -27 -80q-42 -43 -106 -80 t-115 -63v0zM336 434q-35 11 -62 -2q-27 -12 -52 -34q-33 -27 -57 -61q-24 -33 -31 -68q52 39 115 66q64 28 90 92q-4 1 -3 7v0z" />
<glyph unicode="f" horiz-adv-x="473" d="M405 730q3 -26 3 -51q0 -93 -40 -169q-51 -97 -81 -203q4 -5 12 -6q7 -2 11 -9q-1 -10 -12 -11t-15 -7q2 -8 16 -10q13 -1 6 -8q0 -13 -8 -11t-17 3q-19 -135 -38 -274q-19 -140 -66 -266q-14 -44 -39 -79q-23 -32 -70 -32q-4 0 -8 1q-31 22 -31 62q0 9 1 18q7 53 34 84 q29 -3 32 -32q2 -28 -21 -41q-11 0 -13 8q-1 8 -6 14q-13 -23 -10 -52q4 -29 21 -44q91 108 126 273q34 164 58 339q-19 -16 -37 -48q-18 -31 -51 -41q-55 15 -41 83q13 67 66 42q3 -37 -6 -63q-8 -2 -20 -3q-11 -1 -14 7q4 14 18 20q14 7 5 24q-26 -1 -31 -35 q-5 -33 20 -50q43 19 62 55q20 36 8 82q5 4 13 3q9 -1 15 -3q25 42 33 113q5 51 15 152q5 56 24 119q16 49 55 49q10 0 21 -3v0zM353 557q18 44 33 91q15 48 -18 68q-34 -55 -44 -138q-11 -82 -15 -157q12 26 22 61t22 75v0z" />
<glyph unicode="g" horiz-adv-x="413" d="M388 440q-17 -118 -39 -259q-23 -141 -52 -268q-10 -41 -30 -93q-20 -53 -46 -85q-16 -19 -53 -42q-27 -17 -48 -17q-7 -1 -14 1q-35 26 -35 72q0 27 11 60q33 91 93 63q15 -14 15 -39t-11 -38q-22 -14 -43 3q-20 18 5 43q10 0 8 -13q-3 -13 7 -14q17 4 15 21t-15 21 q-52 -12 -63 -61q-10 -49 10 -95q123 19 158 156t59 271q-27 -44 -52 -89t-93 -48q-56 80 -13 189t97 177q12 14 26 30q18 21 34 37t39 32q4 0 4 -4q9 0 14 -5q4 -5 12 -6v0zM362 409q-1 5 -8 4q-56 -56 -104 -142q-48 -87 -37 -201q1 -10 5 -23q3 -13 14 -19q62 66 90 165 q29 99 40 216v0z" />
<glyph unicode="h" horiz-adv-x="483" d="M331 732q42 -57 18 -143t-52 -153q-22 -57 -48 -108q-25 -44 -49 -89t-26 -109q25 83 65 153q39 71 110 108q61 -54 22 -170t-7 -196q38 -2 64 38q12 17 14 40q3 23 -22 23q-10 -1 -15 -7q-5 -7 -3 -23q8 -6 15 4q6 10 15 3q3 -13 -7 -24q-11 -11 -31 -9q-11 10 -11 30 t4 37q12 8 33 8t34 -8q8 -20 8 -39q0 -37 -31 -66q-48 -46 -115 -14q-18 87 6 172q25 84 24 171q-80 -32 -114 -128t-66 -193q-2 -9 -7 -25q-3 -13 -15 -13q-2 0 -4 1q-14 11 -6 29t13 34q4 24 6 49t6 48q-30 -32 -62 -77q-33 -45 -80 -68q5 20 21 32q15 13 31 24 q23 37 53 70q31 32 52 79q8 24 14 54q4 21 12 62q6 29 13 58q7 30 13 58q12 79 21 151q10 71 50 119q4 4 12 6q7 2 16 2q3 0 6 -1v0zM278 650q-28 -80 -39 -181t-32 -178q22 43 42 94q19 51 37 104q19 52 31 108q13 57 -1 109q-15 -6 -23 -23q-9 -17 -15 -33v0z" />
<glyph unicode="i" horiz-adv-x="420" d="M321 457q7 -21 -7 -32q-13 -11 -29 -1q-10 22 4 34q7 5 14 5q9 1 18 -6v0zM307 391q-1 -25 -13 -63q-11 -38 -19 -83q-6 -41 -11 -88q-4 -46 1 -91q1 -6 3 -13q2 -6 4 -11q20 -28 53 -16q33 13 64 16q-23 -30 -86 -40q-13 -2 -25 -2q-42 0 -59 26q-14 49 8 131t35 140 q-39 -62 -74 -128q-36 -66 -73 -130q-19 -8 -30 -19q-12 -12 -28 -10q-25 13 -25 38q0 19 14 44q33 58 43 -23q-6 -8 -17 -11q-11 -2 -19 -2q-4 -6 -2 -14q3 -7 6 -13q52 17 81 70q30 53 56 103l42 75q17 29 29 52t20 56q2 5 8 6q7 1 14 0v0zM57 79h16q-1 5 -2 9q-2 4 -8 3 q1 -6 -2 -7q-4 -1 -4 -5v0z" />
<glyph unicode="j" horiz-adv-x="321" d="M287 450q6 -13 6 -25q0 -7 -2 -14q-6 -19 -22 -23q-33 2 -29 42q3 26 22 26q10 0 25 -6v0zM226 21q17 2 27 10t25 11q-2 -24 -22 -30q-19 -6 -33 -19q-15 -101 -42 -189t-99 -130h-30q-11 13 -15 30q-2 9 -2 21q0 10 1 22q13 83 59 149t100 107q9 69 20 134t20 139 q-20 -37 -33 -71q-14 -34 -35 -74q-13 -28 -37 -72q-24 -43 -57 -44q-30 10 -32 61q-1 51 29 62q35 -2 30 -37q-4 -35 -33 -13q-3 12 5 12q9 0 13 4q-23 15 -26 -24q-3 -38 20 -50q30 21 51 56q21 36 38 73q18 37 36 76q17 39 28 78q3 16 5 30t13 25h9q1 -1 4 -6q3 -4 6 -6 q-15 -74 -23 -163q-9 -89 -20 -172v0zM58 -241q-4 -14 -2 -33q1 -19 14 -31q31 10 47 39q15 30 26 63q13 37 24 77q6 26 19 77q0 3 -3 3q-34 -40 -72 -88q-39 -48 -53 -107v0z" />
<glyph unicode="k" horiz-adv-x="541" d="M324 731q11 -5 13 -14q1 -10 1 -14q6 -93 -28 -182t-60 -165q29 26 60 66q30 40 87 39q38 -37 8 -76q-31 -39 -67 -57q10 -15 20 -21q11 -5 19 -14q26 -56 5 -135q-22 -79 12 -129q41 8 76 35q36 27 25 78q-12 28 -39 17q-26 -12 -16 -49q6 2 5 15q-2 13 12 13 q21 -11 13 -30q-8 -18 -27 -19q-42 12 -17 64q24 52 77 20q11 -24 11 -53v-10q-3 -36 -22 -56q-12 -12 -46 -29q-33 -16 -52 -16q-57 16 -36 107q21 90 11 148q-14 33 -49 38q-34 6 -66 -13q-10 -46 -18 -106q-7 -60 -7 -119l3 -33q2 -17 -10 -30q-12 5 -22 5q-11 0 -20 6 q8 67 20 131q12 63 18 132q-18 -35 -45 -91q-27 -57 -63 -85q-17 -10 -38 -10t-35 14q-2 16 -2 31q0 32 10 61q14 43 72 41q21 -21 8 -46q-12 -25 -43 -17q0 15 14 15t14 13q-27 26 -44 -9q-16 -35 -12 -75q37 -11 62 14q25 24 40 49q17 27 31 59q14 33 25 64q30 94 35 201 q6 106 35 195q10 7 19 15q10 9 16 20h1q5 0 6 -3v0zM254 415q24 63 46 132q22 70 17 152q-1 4 -7 4q-34 -60 -41 -138q-6 -78 -15 -150v0zM264 328q36 16 72 37t37 64q-43 0 -69 -37q-25 -36 -40 -64v0z" />
<glyph unicode="l" horiz-adv-x="391" d="M267 93q-13 25 2 47q16 23 47 11q5 -36 -11 -70q-17 -33 -41 -52q-28 -24 -58 -26h-3q-27 0 -43 35q-14 47 1 109q16 63 25 105q-25 -46 -55 -93q-29 -47 -58 -92q-9 -15 -22 -32q-12 -17 -33 -13q42 48 78 104q35 56 68 119q10 20 22 40t19 41q15 48 23 110t17 114 q3 17 8 52q5 26 14 55q8 25 20 51q12 27 29 29q15 -1 29 -27q14 -25 16 -47q1 -9 1 -19q-1 -44 -15 -84q-17 -49 -38 -91q-6 -14 -18 -43q-10 -22 -21 -41q-12 -20 -25 -38q-14 -18 -23 -37q-18 -43 -26 -111q-9 -68 -4 -125q2 -15 6 -29q5 -14 20 -20q28 12 47 32 q18 20 31 46q3 10 -7 -4q-9 -14 -22 -6v0zM238 397q30 68 62 148t16 163q0 4 -4 3q-39 -56 -54 -143q-14 -88 -20 -171v0zM283 116q5 7 9 5q4 -3 7 -8q4 3 4 11q0 7 -4 11q-9 1 -14 -6q-6 -8 -2 -13v0z" />
<glyph unicode="m" horiz-adv-x="735" d="M250 200q27 57 66 115q39 59 99 92q40 -16 37 -67q-4 -50 -17 -92q20 26 56 71q37 44 77 65q14 7 28 6q14 -2 23 -12q-3 -92 -21 -177q-19 -84 -21 -177q13 4 22 11q9 8 23 9q9 11 23 28q13 16 23 34q10 19 11 41q1 21 -27 4q-1 -9 5 -5q7 4 8 -5q-2 -13 -12 -19 q-10 -7 -24 0q-3 29 10 41q14 12 29 23q9 -3 16 -9t13 -13q-4 -44 -25 -82q-20 -38 -50 -58q-23 -16 -51 -18q-27 -2 -36 31q-5 35 9 79q13 45 24 87q11 43 20 85q9 41 -1 80q-95 -44 -143 -139q-47 -95 -45 -227q-5 -4 -13 -4h-1q-10 1 -19 1q7 91 34 187q26 96 12 192 q-40 -11 -69 -48q-28 -37 -51 -79q-23 -40 -40 -87q-17 -48 -22 -94v-36q0 -19 -19 -29q-18 24 -8 51t18 56q13 66 25 160t0 171q-31 -23 -56 -63t-51 -83q-26 -42 -50 -85q-23 -42 -33 -84q-11 -92 56 -70q67 21 57 99q-11 24 -39 21t-29 -34q1 -12 14 -21t28 5q-5 9 -14 5 q-9 -3 -9 11q4 13 19 10q15 -2 20 -10q3 -15 -4 -30t-19 -18q-30 -4 -44 26q-15 30 2 61q16 5 29 10q14 6 36 4q37 -33 21 -84q-16 -52 -50 -72q-44 -13 -72 4q-21 14 -21 47q0 9 2 20q14 60 54 133t76 130q19 30 37 53q14 15 40 47q53 -34 35 -120t-31 -152v-3v0z" />
<glyph unicode="n" horiz-adv-x="708" d="M550 445q-1 -102 -22 -221q-22 -119 30 -202q32 13 55 40q22 27 20 64q-14 12 -34 5q-19 -7 -20 -26q7 -17 17 -6q9 11 20 6q3 -32 -27 -34q-30 -3 -35 34q4 33 41 47q38 13 67 -14q-9 -72 -66 -117q-27 -21 -54 -21q-29 0 -58 27q10 81 20 189t13 212q-47 -25 -80 -63 t-65 -78q-12 -38 -26 -81l-28 -88q-7 -28 -15 -58q-9 -30 -35 -42q-8 20 1 41t16 42q18 66 33 135q14 69 21 151q-42 -42 -82 -132q-39 -90 -84 -162q-18 -29 -59 -59q-41 -31 -77 1q-1 14 -1 27q0 34 7 61q10 38 31 65q36 11 61 -6q24 -17 13 -52q-18 -6 -33 -3 q-16 4 -16 24q7 6 11 1q5 -5 14 -6q-30 52 -54 -1q-23 -54 -9 -102q5 1 8 0q4 -1 5 -4q23 1 34 13t28 20q44 71 87 150l87 156l16 32q8 18 25 26q21 -24 11 -63q-10 -40 -11 -73q40 41 77 86q38 44 89 75q11 -2 18 -7l15 -9v0z" />
<glyph unicode="o" horiz-adv-x="537" d="M341 386q45 0 90 22q44 22 86 25q-23 -35 -71 -45t-92 -24q28 -122 -37 -245q-61 -116 -174 -116q-6 0 -13 1q-37 7 -59 43q-21 37 -22 77q0 53 20 113t53 106q23 30 55 57q31 28 52 50q12 12 26 12q16 0 35 -15q34 -29 51 -61v0zM250 412q6 -17 24 -22t37 -8 q-6 16 -16 28q-11 13 -31 15q-7 -7 -14 -13v0zM105 68q11 -35 48 -40q36 -6 72 14q62 39 98 132q35 93 5 182q-42 -3 -69 11q-26 13 -38 40q-38 -52 -85 -152t-31 -187v0z" />
<glyph unicode="p" horiz-adv-x="663" d="M384 462q4 -30 -8 -61t-15 -64q29 21 68 49q39 29 85 45q75 -71 22 -189t-63 -219q3 -7 11 -8q9 -1 7 -11q38 18 73 38t44 66q-20 0 -22 -18t-28 -14q-8 38 25 55q34 16 57 -14v-3q0 -42 -17 -56q-18 -14 -51 -35q-39 -31 -100 -45t-48 76q18 73 47 165q28 92 34 171 q-59 -16 -99 -51t-63 -88q-18 -146 -50 -283t-35 -287q-9 -3 -17 -3q-6 0 -11 2q-13 4 -26 5q24 108 72 322q36 162 63 334q-35 -70 -76 -142q-42 -72 -91 -132q-20 -27 -76 -64q-56 -36 -67 37q0 25 15 59q15 35 29 45q66 21 64 -33q-3 -54 -54 -35q0 17 18 18q17 1 18 18 q-37 21 -54 -21q-16 -42 -1 -73q37 2 61 28t43 52q59 72 108 161q49 88 81 190q1 4 4 6q4 3 4 7h19v0z" />
<glyph unicode="q" horiz-adv-x="448" d="M339 453q-35 -170 -85 -326t-87 -325q32 59 73 139q42 81 103 116q72 22 72 -32q1 -4 0 -8q-5 -64 -76 -48q-7 20 6 37q13 16 36 17q0 -12 -6 -17q-7 -5 -7 -16q22 3 25 18q4 15 -4 32q-105 -37 -148 -134q-28 -66 -86 -196q1 -13 -1 -24q-1 -10 -11 -13q-25 5 -23 22 q3 17 14 32q11 75 31 157q21 82 44 156q-48 -51 -110 -41t-65 104q7 83 71 188q63 104 134 150q24 15 49 19q7 1 14 1q18 0 37 -8v0zM105 99q16 -88 67 -45q52 43 71 90q24 69 34 139t20 141q-4 1 -7 4q-2 3 -6 5q-69 -36 -127 -134q-58 -99 -52 -200v0z" />
<glyph unicode="r" horiz-adv-x="523" d="M321 377q23 3 36 12t24 24q9 14 17 31t27 21q0 -3 3 -4q1 0 5 -1q-9 -36 -30 -77t-38 -90q-15 -46 -27 -94q-13 -49 -17 -93q-2 -24 1 -50t19 -34q30 -6 60 25q30 32 60 35q-17 -41 -61 -66t-91 -6q-20 83 6 171q25 87 50 164q-17 -5 -34 -25t-50 -19q-8 10 -12 24 q-4 13 -4 31q-34 -57 -56 -124t-51 -134q-14 -32 -38 -66t-58 -34q-49 15 -49 74q0 10 2 22q10 78 79 59q13 -25 3 -56q-10 -30 -39 -23q0 11 -8 16q4 16 18 14q14 -3 10 21q-39 6 -44 -42q-4 -48 36 -65q55 47 90 126q36 79 61 161q16 41 29 78q14 36 15 73q3 3 7 3 q4 1 5 6h2q7 0 9 -6q3 -5 9 -7q-5 -26 0 -46t24 -29v0z" />
<glyph unicode="s" horiz-adv-x="557" d="M433 355q-10 -2 -21 -3q-11 -2 -24 0q-4 10 -10 21q-5 12 2 24q15 7 21 -1q7 -8 13 -18q17 8 23 23q6 16 -7 31q-50 -18 -84 -53q-33 -34 -47 -89q25 3 38 14q13 10 32 13q66 4 98 -42q25 -37 26 -88q0 -13 -2 -27q-10 -60 -49 -101q-40 -41 -85 -60q-32 2 -64 11 q-33 8 -55 28q-21 43 -10 89t52 60q79 9 74 -50q-6 -59 -74 -54q-6 15 -2 31q3 16 14 23q14 -1 10 -12q-4 -10 -3 -22q32 1 35 29q3 27 -23 36q-32 3 -53 -27q-22 -31 -12 -65q6 -19 29 -35q23 -17 55 -15q80 24 112 143q33 118 -85 121q-19 -4 -38 -15q-20 -12 -43 -8 q-6 13 -2 25t10 21q-59 -53 -109 -131q-33 -51 -97 -152q7 42 29 76q21 34 47 69q55 82 121 155q66 74 139 133q47 -4 44 -43q-4 -39 -25 -65v0z" />
<glyph unicode="t" horiz-adv-x="391" d="M288 781q-18 -52 -35 -97q-16 -44 -35 -91q22 -6 47 -1q25 6 47 9q-5 -13 0 -18q4 -5 4 -17v-5q-21 -16 -49 -19q-21 -1 -65 -4q-22 -65 -43 -168q-21 -104 -27 -204q-3 -41 5 -87q8 -47 38 -57q55 -8 78 46q24 55 35 94q19 -21 9 -55q-11 -35 -28 -59q-14 -17 -32 -29 q-18 -11 -30 -21h-52q-52 50 -47 138q6 87 24 179q9 60 21 116q7 36 22 107q-20 7 -51 3q-31 -3 -47 9q0 20 10 31q9 11 17 23q17 -6 34 -13q18 -6 45 -2q13 48 25 97q12 48 29 91q6 8 24 8t27 -4v0z" />
<glyph unicode="u" horiz-adv-x="651" d="M274 481q14 -11 10 -27t-7 -30q-6 -71 -7 -143q-2 -73 4 -133q3 -32 14 -64q11 -31 34 -51q33 27 52 73q20 46 34 97q19 56 33 118q14 61 13 125q13 2 23 3q11 0 21 -6q-11 -46 -17 -102q-5 -56 -3 -116q3 -60 7 -118q5 -58 30 -96q36 21 56 58q20 38 46 70q1 -6 1 -12 q-1 -20 -11 -39q-14 -23 -29 -43q-14 -19 -33 -36q-19 -16 -37 -24q-76 25 -69 126q8 101 8 178q-24 -65 -47 -153q-22 -88 -75 -125q-49 -23 -71 23q-21 46 -25 92q-4 59 4 120q9 60 15 110q-37 -81 -77 -163q-39 -83 -92 -150q-8 -11 -19 -23t-26 -9q0 11 10 18 q11 7 19 14q35 40 63 93q29 53 55 108q28 55 49 113q22 57 35 115q-1 3 1 5q1 1 2 4h6v0z" />
<glyph unicode="v" horiz-adv-x="631" d="M559 480v-12q0 -48 -53 -65q-59 -19 -104 12q-31 -114 -66 -223t-97 -192q-10 2 -18 7q-8 4 -15 10q-4 96 -18 205q-15 109 -31 219q-30 -11 -53 -30q-23 -18 -41 -42q1 -5 4 -9q3 -3 6 -8q14 2 18 17q5 15 14 13q5 -21 -9 -33q-13 -13 -33 -16q-12 20 -12 37q0 20 17 35 q32 27 73 48q10 8 19 16q9 7 20 4q16 -106 28 -216q12 -111 44 -201q34 57 59 124q25 66 46 143q9 31 17 62q9 30 2 72q7 6 15 10q9 4 21 0q2 -7 3 -16v-20q29 -26 73 -15t57 44q-1 11 -12 13q-11 1 -20 -3q-2 -12 8 -12q9 -1 15 -5q-14 -22 -31 -5t-2 38q12 5 23 4h7 q13 -2 26 -10v0z" />
<glyph unicode="w" horiz-adv-x="597" d="M239 78q21 36 40 76l36 80q7 0 13 -3q5 -2 13 0q5 -29 8 -60q4 -31 3 -56q31 89 55 186t80 161q68 19 68 -41q0 -8 -1 -17q-10 -79 -77 -51q-1 28 4 46q4 18 29 23q13 -7 16 -24t-12 -25q-12 1 -9 9q3 9 -1 14q-12 0 -11 -11q1 -12 4 -19q45 -5 41 48t-44 25 q-10 -11 -21 -33q-11 -21 -19 -40q-33 -81 -50 -185q-18 -103 -16 -179q-6 -2 -13 -2q-4 0 -9 1q-14 1 -25 4q0 39 -1 89q-1 51 -5 94q-34 -30 -51 -88q-18 -58 -55 -91q-12 6 -15 19q-4 14 -9 27q16 89 7 196q-9 106 -23 202q-37 4 -84 -31q-48 -34 -28 -72q17 0 23 11 q5 12 10 25q13 -65 -33 -54q-28 8 -28 33q0 15 11 38q16 20 56 48q40 27 63 28q31 -10 37 -76q6 -67 6 -109q3 -61 6 -115q2 -53 11 -101v0z" />
<glyph unicode="x" horiz-adv-x="527" d="M125 339q-11 51 29 65q40 15 54 -23q5 -37 -31 -64t-82 -8q-50 102 65 139q114 36 139 -82q13 31 31 58q17 27 49 41q49 -15 47 -71q-3 -55 -63 -58q-15 15 -13 42q2 26 21 37q10 -1 14 -8q5 -7 5 -18q0 -13 -7 -10q-8 3 -12 -2q-2 -8 1 -12q2 -4 3 -10q33 7 34 44 q2 37 -38 35q-42 -11 -51 -65q-9 -55 -10 -113q-8 -65 -4 -157q4 -93 88 -70q35 16 56 58q21 41 -7 79q-12 0 -20 -4q-8 -3 -14 -8q-3 -14 6 -19q9 -4 1 -15q-45 8 -19 45t65 19q15 -36 15 -66q0 -67 -76 -103q-27 -13 -47 -13q-64 0 -67 126q-42 -45 -92 -87 q-49 -42 -131 -38q-19 21 -19 47q0 16 8 33q19 45 68 26q4 -11 6 -22q3 -11 -6 -20q-12 2 -13 14t-13 13q-25 -2 -30 -29q-6 -27 15 -40q108 12 163 82t48 206q-2 27 -10 51q-9 25 -16 51q-51 40 -117 11q-66 -30 -53 -83q16 -29 50 -20t44 39q1 9 -3 14q-3 3 -8 9 q-10 6 -4 -5q7 -12 4 -25q-6 -2 -7 -6q-2 -5 -5 -10q-8 -2 -21 -3q-13 -2 -20 3v0zM144 362q11 -5 16 3t6 20q-22 0 -22 -23v0z" />
<glyph unicode="y" horiz-adv-x="534" d="M243 247q-13 -40 -30 -86q-17 -45 -41 -97q-12 -29 -34 -62q-22 -32 -55 -28q-34 15 -34 58q0 15 5 34q17 71 51 84q25 3 34 -13t7 -47q-9 -8 -23 -16q-14 -7 -26 5q2 14 16 16q14 1 18 14q0 9 -5 11q-6 2 -10 7q-36 -11 -45 -57q-9 -47 15 -77q53 25 81 93t46 142 q7 25 21 74q11 37 21 76v37q12 5 27 4q16 -1 25 -7q-19 -87 -22 -190q-3 -102 14 -188q75 46 98 143q24 97 52 190q-8 24 2 41q6 12 19 11q7 0 16 -4q4 -6 4 -13t-4 -14q-6 -15 -11 -29q-8 -40 -12 -93q-3 -53 -10 -97q-6 -33 -16 -72q-10 -40 -22 -82q-21 -73 -40 -133 q-20 -60 -53 -114q-33 -50 -93 -88q-41 -26 -78 -26q-18 0 -35 6q-42 52 -9 122q32 69 91 72q22 -1 32 -19q10 -17 10 -48q-11 -17 -27 -28q-17 -10 -48 -5q-8 11 -6 28q1 16 10 28q10 -3 7 -19t8 -19q30 -1 36 25q5 25 -22 35q-45 2 -77 -60t14 -101q85 8 141 67 q55 58 83 131q33 87 48 186t35 196q-21 -36 -32 -84q-12 -48 -32 -88q-11 -20 -34 -43q-24 -23 -45 -24q-55 9 -56 92q-2 83 0 139v4v0z" />
<glyph unicode="z" horiz-adv-x="633" d="M443 330q-11 1 -29 -8t-38 1q-12 15 -12 42q-1 27 -7 48q-40 -64 -83 -147q-43 -84 -93 -157q-15 -22 -34 -50q-19 -27 -37 -36q-75 -15 -77 63v4q0 76 69 90q16 -18 9 -46t-31 -21q-8 18 0 23q9 5 14 6q-20 24 -35 -13q-15 -38 -5 -69q8 -20 27 -21q18 0 36 14 q32 27 61 76q30 50 59 100q30 53 55 104q25 50 50 87q-1 19 6 30q6 11 24 11q8 -27 10 -53q3 -26 27 -33q40 -4 75 25q35 30 64 35q2 -21 -13 -32t-28 -24q-12 -16 -21 -36q-9 -19 -21 -35q-16 -22 -37 -41q-21 -18 -37 -42q-15 -24 -27 -49t-30 -48q15 0 32 13q16 12 40 13 q25 -24 21 -68q-5 -44 24 -56q26 -3 43 20t39 33q12 18 23 37t33 26q1 -2 1 -4q0 -15 -14 -36q-16 -25 -35 -46q-17 -20 -42 -40q-22 -17 -48 -17q-4 0 -8 1q-34 10 -41 46q-8 36 -34 59q-48 -11 -67 -55q-20 -44 -75 -39q2 24 16 44q15 20 29 39t26 39q9 13 26 39 q28 41 58 79q30 39 58 75h4v0z" />
<glyph unicode="&#x2000;" horiz-adv-x="392" />
<glyph unicode="&#x2001;" horiz-adv-x="785" />
<glyph unicode="&#x2002;" horiz-adv-x="392" />
<glyph unicode="&#x2003;" horiz-adv-x="785" />
<glyph unicode="&#x2004;" horiz-adv-x="261" />
<glyph unicode="&#x2005;" horiz-adv-x="196" />
<glyph unicode="&#x2006;" horiz-adv-x="130" />
<glyph unicode="&#x2007;" horiz-adv-x="130" />
<glyph unicode="&#x2008;" horiz-adv-x="98" />
<glyph unicode="&#x2009;" horiz-adv-x="157" />
<glyph unicode="&#x200a;" horiz-adv-x="43" />
<glyph unicode="&#x202f;" horiz-adv-x="157" />
<glyph unicode="&#x205f;" horiz-adv-x="196" />
<glyph unicode="&#x25fc;" horiz-adv-x="465" d="M0 465h465v-465h-465v465z" />
</font>
</defs>
</svg>
